Тайны госпожи Кирсановой [1-50 серии из 50] (2018) HDTV 1080p от R.G.Generalfilm

Reply to topic
 
Author Message

White Smoke ®

Gender: Male

Longevity: 7 months 6 days

Posts: 66

Post 05-Dec-2018 03:11

[Quote]

Тайны госпожи Кирсановой Год выпуска: 2018
Жанр: Детектив
Выпущено: Россия Boomerang Film Company
Режиссер: Сергей Мезенцев, Виталий Бордачев
В ролях: Ольга Лерман, Антон Батырев, Евгений Шириков, Ольга Плешкова, Евгения Симонова, Иван Шабалтас, Николай Денисов, Максим Битюков, Юрий Шлыков, Сергей Савлук, Елена Радевич, Александра Никифорова
О фильме: 1878 год. В небольшой уездный город Богородск приезжает молодая учительница математики Лариса Дмитриевна Кирсанова. Госпожу Кирсанову привело сюда желание разыскать своего жениха – молодого дворянина Павла Бестужева, который таинственно исчез за день до венчания, не попрощавшись и не оставив даже письма. Павел родом из Богородска, в котором из родных осталась только старушка мать. Здесь же проживает и любимая тетка Ларисы – Лизавета Прокофьевна. Тем временем, после окончания русско-турецкой войны с Балкан возвращаются участники боевых сражений. Город ликует, встречая героев! Приехав в провинцию, Лариса Дмитриевна даже не догадывается о том, что её ожидает совсем другая жизнь, в которой в полной мере раскроются ее удивительные способности, ум и характер. Отныне ее жизнь наполнена загадками, риском и раскрытием громких преступлений!.
Качество: HDTV 1080p Запись с телеканала РОССИЯ HD
Видео: AVC, 1920x1080 (16:9), 25.000 fps, 7 051 Kbps (0.136 bit/pixel)
Аудио: AC3 / 2.0 / 48 kHz / 192 kbps
Продолжительность: ~00:50:00
Перевод: Не требуется
Cубтитры: нет

Скриншоты





MediaInfo

General
Unique ID : 176218087389814346056314147789133921849 (0x84925E7EF44D97AC8DDD1CBDAA6D3E39)
Complete name : E:\Запись с тв\Doktor Rixter S02.2018.HDTV 1080p.RG GeneralFilm\Doktor Rixter.s02.e03.2018.HDTV 1080p.by.White Smoke.R.G.Generalfilm.mkv
Format : Matroska
Format version : Version 4 / Version 2
File size : 2.56 GiB
Duration : 50 min
Overall bit rate mode : Constant
Overall bit rate : 7 220 kb/s
Movie name : Doktor Rixter.s02.e03.2018.HDTV 1080p.by.White Smoke.R.G.Generalfilm.mkv
Encoded date : UTC 2018-11-21 19:57:03
Writing application : mkvmerge v6.8.0 ('Theme for Great Cities') 64bit built on Mar 2 2014 21:34:26
Writing library : libebml v1.3.0 + libmatroska v1.4.1
Cover : Yes
Attachments : cover.jpg
Video
ID : 1
Format : AVC
Format/Info : Advanced Video Codec
Format profile : High@L4.1
Format settings, CABAC : Yes
Format settings, ReFrames : 3 frames
Codec ID : V_MPEG4/ISO/AVC
Duration : 50 min
Bit rate mode : Constant
Bit rate : 7 051 kb/s
Width : 1 920 pixels
Height : 1 080 pixels
Display aspect ratio : 16:9
Frame rate mode : Constant
Frame rate : 25.000 FPS
Standard : PAL
Color space : YUV
Chroma subsampling : 4:2:0
Bit depth : 8 bits
Scan type : Progressive
Bits/(Pixel*Frame) : 0.136
Stream size : 2.44 GiB (95%)
Default : Yes
Forced : No
Color range : Limited
Color primaries : BT.709
Transfer characteristics : BT.709
Matrix coefficients : BT.709
Audio
ID : 2
Format : AC-3
Format/Info : Audio Coding 3
Mode extension : CM (complete main)
Format settings, Endianness : Big
Codec ID : A_AC3
Duration : 50 min
Bit rate mode : Constant
Bit rate : 192 kb/s
Channel(s) : 2 channels
Channel positions : Front: L R
Sampling rate : 48.0 kHz
Frame rate : 31.250 FPS (1536 spf)
Compression mode : Lossy
Stream size : 69.8 MiB (3%)
Default : Yes
Forced : No

Раздача ведётся путём добавления новых серий

Внимание! Раздача ведётся путём добавления новых серий; при каждом добавлении создаётся новый торрент.
Чтобы начать докачку новой серии, пользователям необходимо сделать следующее:
1. Остановить скачивание;
2. Удалить старый торрент у себя из клиента (старые серии удалять не надо);
3. Скачать новый торрент и запустить его у себя в клиенте вместо старого, при этом указать клиенту путь в старую папку куда и должно происходить скачивание новых серий. Ваш клиент при этом должен произвести хеширование (проверку) старой папки и будет докачивать только те серии, которых у вас ещё нет. Старые серии при этом не удаляются, а продолжают раздаваться! Eсли вы уже удалили старые серии, то предотвратить повторную закачку старых серий можно, отжав галочку в соответствующих местах при запуске нового торрента.


Last edited by White Smoke on 2019-01-20 17:31; edited 13 times in total
[Profile] [PM]

runetzone

Gender: Male

Longevity: 5 months 13 days

Posts: 63

Location: Санкт-Петербург

Post 09-Jan-2019 12:35 (after 1 month 4 days)

[Quote]

Спасибо за раздачу!!! ay
[Profile] [PM]

Мерве

Longevity: 6 months 11 days

Posts: 1

Post 20-Jan-2019 09:32 (after 10 days)

[Quote]

Когда ждать продолжение раздачи?
Извините если надоела))
[Profile] [PM]

White Smoke ®

Gender: Male

Longevity: 7 months 6 days

Posts: 66

Post 20-Jan-2019 17:33 (after 8 hours)

[Quote]

Мерве, извините пожалуйста проблемы были с источником трансляции
[Profile] [PM]
Display posts:    
Reply to topic

Current time is: 20-Jun 06:59

All times are UTC + 3



You cannot post new topics in this forum
You cannot reply to topics in this forum
You cannot edit your posts in this forum
You cannot delete your posts in this forum
You cannot vote in polls in this forum
You cannot attach files in this forum
You cannot download files in this forum