Аэронавты / The Aeronauts (2019) WEB-DLRip | Сербин

Reply to topic
 
Author Message

Monk ®

Gender: Male

Longevity: 1 year 4 months

Posts: 11057

Location: Казань

Post 03-Feb-2020 02:15

[Quote]

Аэронавты / The Aeronauts Год выпуска: 2019
Жанр: Приключения, мелодрама, драма, биография
Выпущено: Великобритания, США, Amazon Studios, Mandeville Films, One Shoe Films
Режиссер: Том Харпер
В ролях: Фелисити Джонс, Эдди Редмэйн, Химеш Патель, Левин Ллойд, Фиби Фокс, Тим МакИннерни, Энн Рейд, Том Кортни, Ребекка Фронт, Венсан Перес, Роберт Гленистер, Джулиан Ферро, Джон Тейлор, Томас Арнольд, Камиль Лемешевский
О фильме: Лондон. 1862 год. Она - очаровательная богатая молодая женщина, увлеченная управлением воздушных шаров. Он - исследователь метеоролог, готовый на все, чтобы совершить научный прорыв. Самой судьбой им было предназначено взлететь выше, чем кто-либо в истории. Вдвоем они отправятся в отчаянное путешествие на аэростате, через бури и грозы на край неизведанного мира, где воздух разряжен, а шансы на выживание невелики...
Качество: WEB-DLRip
Видео: XviD, 2191 Kбит/с, 704x384
Аудио: Русский, английский (AC3, 6 ch, 448 Кбит/с)
Продолжительность: 01:40:29
Перевод: Авторский [Сербин]
Субтитры: Русские, английские

Скриншоты


MediaInfo

Общее
Полное имя : E:\Aeronauts_2019_WEB-DLRip_AVO_by_Dalemake.avi
Формат : AVI
Формат/Информация : Audio Video Interleave
Профиль формата : OpenDML
Размер файла : 2,18 Гбайт
Продолжительность : 1 ч. 40 м.
Общий поток : 3105 Кбит/сек
Программа кодирования : VirtualDubMod 1.5.10.3 | www.virtualdub-fr.org || (build 2550/release)
Библиотека кодирования : VirtualDubMod build 2550/release
Видео
Идентификатор : 0
Формат : MPEG-4 Visual
Профиль формата : Advanced Simple@L5
Настройки формата : BVOP2 / Custom Matrix
Параметр BVOP формата : 2
Параметр QPel формата : Нет
Параметр GMC формата : Без точки перехода
Параметр матрицы формата : Выборочная
Идентификатор кодека : XVID
Идентификатор кодека/Подсказка : XviD
Продолжительность : 1 ч. 40 м.
Битрейт : 2191 Кбит/сек
Ширина : 704 пикселя
Высота : 384 пикселя
Соотношение сторон : 1,85:1
Частота кадров : 23,976 (24000/1001) кадра/сек
Цветовое пространство : YUV
Субдискретизация насыщенности : 4:2:0
Битовая глубина : 8 бит
Тип развёртки : Прогрессивная
Метод сжатия : С потерями
Бит/(Пиксели*Кадры) : 0.338
Размер потока : 1,54 Гбайт (71%)
Библиотека кодирования : XviD 67
Аудио #1
Идентификатор : 1
Формат : AC-3
Формат/Информация : Audio Coding 3
Коммерческое название : Dolby Digital
Идентификатор кодека : 2000
Продолжительность : 1 ч. 40 м.
Вид битрейта : Постоянный
Битрейт : 448 Кбит/сек
Каналы : 6 каналов
ChannelLayout : L R C LFE Ls Rs
Частота : 48,0 КГц
Частота кадров : 31,250 кадров/сек (1536 SPF)
Метод сжатия : С потерями
Размер потока : 322 Мбайт (14%)
Выравнивание : Разделение по промежуткам
Продолжительность промежутка : 42 мс. (1,00 видеокадр)
Время предзагрузки промежутка : 500 мс.
ServiceKind/String : Complete Main
Аудио #2
Идентификатор : 2
Формат : AC-3
Формат/Информация : Audio Coding 3
Коммерческое название : Dolby Digital
Идентификатор кодека : 2000
Продолжительность : 1 ч. 40 м.
Вид битрейта : Постоянный
Битрейт : 448 Кбит/сек
Каналы : 6 каналов
ChannelLayout : L R C LFE Ls Rs
Частота : 48,0 КГц
Частота кадров : 31,250 кадров/сек (1536 SPF)
Метод сжатия : С потерями
Размер потока : 322 Мбайт (14%)
Выравнивание : Разделение по промежуткам
Продолжительность промежутка : 42 мс. (1,00 видеокадр)
Время предзагрузки промежутка : 500 мс.
ServiceKind/String : Complete Main
[Profile] [PM]
Display posts:    
Reply to topic

Current time is: 10-Apr 09:34

All times are UTC + 3



You cannot post new topics in this forum
You cannot reply to topics in this forum
You cannot edit your posts in this forum
You cannot delete your posts in this forum
You cannot vote in polls in this forum
You cannot attach files in this forum
You cannot download files in this forum