Изгоняющий дьявола: Абаддон / The Assent (2019) WEB-DL 1080p | Чистый звук

Reply to topic
 
Author Message

Monk ®

Gender: Male

Longevity: 1 year 4 months

Posts: 10910

Location: Казань

Post 03-Feb-2020 04:00

[Quote]

Изгоняющий дьявола: Абаддон / The Assent Год выпуска: 2019
Жанр: Ужасы, триллер
Выпущено: США, Boom Done Productions
Режиссер: Пирри Реджинальд Тео
В ролях: Роберт Казински, Питер Джейсон, Флоренс Ванида Фэйвр, Кэйден Драгомер, Ханна Уорд, Дуглас Спэйн, Эйлин Дитц, Маргарита Рейес, Лука Блю Дарнелл, Уилльям Доберт
О фильме: Над семьей Джоэла нависло проклятие. Недавно скончалась его жена, а маленького сына мучают кошмары. Призванный в дом священник убежден, что их род захватил древний демон разрушения Абаддон, принимающий разные обличия. Если демона не остановить, его власть распространится и на другие семьи.
Качество: WEB-DL 1080p
Видео: MPEG-4 AVC, 5995 Kбит/с, 1920x816
Аудио: Русский (AC3, 2 ch, 192 Кбит/с), английский (E-АС3, 6 ch, 640 Кбит/с,)
Продолжительность: 01:27:46
Перевод: Дублированный [Чистый звук]
Субтитры: Английские

Скриншоты



MediaInfo

General
Unique ID : 227413755524276412031773820224134039512 (0xAB164BD0AE73719DBA19F4A19E21C7D8)
Complete name : The.Assent.2019.AMZN.WEB-DL.1080p.mkv
Format : Matroska
Format version : Version 4
File size : 4.19 GiB
Duration : 1 h 27 min
Overall bit rate : 6 829 kb/s
Encoded date : UTC 2020-01-15 15:28:06
Writing application : mkvmerge v7.1.0 ('Good Love') 64bit built on Jul 27 2014 13:06:55
Writing library : libebml v1.3.0 + libmatroska v1.4.1
Video
ID : 1
Format : AVC
Format/Info : Advanced Video Codec
Format profile : High@L4
Format settings : CABAC / 4 Ref Frames
Format settings, CABAC : Yes
Format settings, Reference fra : 4 frames
Codec ID : V_MPEG4/ISO/AVC
Duration : 1 h 27 min
Bit rate mode : Constant
Bit rate : 5 995 kb/s
Nominal bit rate : 10 000 kb/s
Width : 1 920 pixels
Height : 816 pixels
Display aspect ratio : 2.35:1
Frame rate mode : Constant
Frame rate : 23.976 (24000/1001) FPS
Color space : YUV
Chroma subsampling : 4:2:0
Bit depth : 8 bits
Scan type : Progressive
Bits/(Pixel*Frame) : 0.160
Stream size : 3.68 GiB (88%)
Language : English
Default : Yes
Forced : No
Color range : Limited
Color primaries : BT.709
Transfer characteristics : BT.709
Matrix coefficients : BT.709
Audio #1
ID : 2
Format : AC-3
Format/Info : Audio Coding 3
Commercial name : Dolby Digital
Codec ID : A_AC3
Duration : 1 h 27 min
Bit rate mode : Constant
Bit rate : 192 kb/s
Channel(s) : 2 channels
Channel layout : L R
Sampling rate : 48.0 kHz
Frame rate : 31.250 FPS (1536 SPF)
Compression mode : Lossy
Stream size : 121 MiB (3%)
Language : Russian
Service kind : Complete Main
Default : Yes
Forced : No
Audio #2
ID : 3
Format : E-AC-3
Format/Info : Enhanced AC-3
Commercial name : Dolby Digital Plus
Codec ID : A_EAC3
Duration : 1 h 27 min
Bit rate mode : Constant
Bit rate : 640 kb/s
Channel(s) : 6 channels
Channel layout : L R C LFE Ls Rs
Sampling rate : 48.0 kHz
Frame rate : 31.250 FPS (1536 SPF)
Compression mode : Lossy
Stream size : 402 MiB (9%)
Language : English
Service kind : Complete Main
Default : No
Forced : No
Text #1
ID : 4
Format : UTF-8
Codec ID : S_TEXT/UTF8
Codec ID/Info : UTF-8 Plain Text
Duration : 1 h 20 min
Bit rate : 52 b/s
Count of elements : 920
Stream size : 31.0 KiB (0%)
Language : English
Default : No
Forced : No
Text #2
ID : 5
Format : UTF-8
Codec ID : S_TEXT/UTF8
Codec ID/Info : UTF-8 Plain Text
Duration : 1 h 27 min
Bit rate : 50 b/s
Count of elements : 979
Stream size : 32.4 KiB (0%)
Title : SDH
Language : English
Default : No
Forced : No
[Profile] [PM]
Display posts:    
Reply to topic

Current time is: 02-Apr 12:06

All times are UTC + 3



You cannot post new topics in this forum
You cannot reply to topics in this forum
You cannot edit your posts in this forum
You cannot delete your posts in this forum
You cannot vote in polls in this forum
You cannot attach files in this forum
You cannot download files in this forum