Двойная забава / Double Dhamaal (2011) HDTV 1080p от Generalfilm

Reply to topic
 
Author Message

ValkiriaGF ®

Gender: Female

Longevity: 1 year 6 months

Posts: 30

Location: Северная Пальмира

Post 21-Feb-2020 22:28

[Quote]

Двойная забава / Double Dhamaal
Год выпуска: 2011
Жанр: Комедия
Выпущено: Индия
Режиссер: Индра Кумар
В ролях: Санджай Датт, Джавед Джеффри, Ритеш Дешмукх, Малика Шерават, Аршад Варси, Ашиш Чаудхари, Кангана Ранаут, Сатиш Каушик, Закир Хуссейн, Прем Чопра
О фильме: История сосредоточена вокруг четырех друзей, Ади, Роя, Манава и Бомана, которые решили заработать деньги, инвестируя в недвижимость. Они выбрали самые высокие здания одной из лидирующих финансовых групп и решили взять их в аренду. Они находят инвестора, которого позднее похищает владелец здания, Кабир. Когда Кабир узнает, что четверо друзей собираются спасти инвестора, он подговаривает двух подруг Кию и Камини отвлечь Ади и Роя, разыграв с ними «любовную игру». Но эти четверо действительно влюбились, чем не на шутку разозлили Кабира. Две влюбленные парочки и два их друга, эти шестеро решаются на нешуточную схватку с Кабиром, проделывая с ним самые безумные и невероятно весёлые шутки, какие они смогут придумать. Двойной вашей любви к ним, двойной забавы!
Качество: HDTV 1080p
Видео: AVC, 1920x1080 (16:9), 4018 kbps, 25 fps, 0,078 bpp
Аудио: русский, MPEG-1 Audio layer 2, 2.0, 44 kHz, 192 kbps CBR
Продолжительность: 02:17:52
Перевод / Озвучка: Профессиональный [двухголосый] ZEE TV
Cубтитры: русские

Скриншоты




MediaInfo

General
ID : 1 (0x1)
Complete name : D:\торрент\готовые\Индия\Doynaya.zabava(2011)HDTV1080p.Generalfilm.ts
Format : MPEG-TS
File size : 4.27 GiB
Duration : 2 h 17 min
Overall bit rate mode : Variable
Overall bit rate : 4 431 kb/s
Video
ID : 68 (0x44)
Menu ID : 1 (0x1)
Format : AVC
Format/Info : Advanced Video Codec
Format profile : High@L4
Format settings, CABAC : Yes
Format settings, ReFrames : 4 frames
Codec ID : 27
Duration : 2 h 17 min
Bit rate mode : Variable
Bit rate : 4 018 kb/s
Maximum bit rate : 4 500 kb/s
Width : 1 920 pixels
Height : 1 080 pixels
Display aspect ratio : 16:9
Frame rate : 25.000 FPS
Color space : YUV
Chroma subsampling : 4:2:0
Bit depth : 8 bits
Scan type : Progressive
Bits/(Pixel*Frame) : 0.078
Stream size : 3.87 GiB (91%)
Audio
ID : 69 (0x45)
Menu ID : 1 (0x1)
Format : MPEG Audio
Format version : Version 1
Format profile : Layer 2
Codec ID : 3
Duration : 2 h 17 min
Bit rate mode : Constant
Bit rate : 192 kb/s
Channel(s) : 2 channels
Sampling rate : 44.1 kHz
Compression mode : Lossy
Stream size : 189 MiB (4%)
Language : Russian
Релиз от:
[Profile] [PM]
Display posts:    
Reply to topic

Current time is: 29-May 15:21

All times are UTC + 3



You cannot post new topics in this forum
You cannot reply to topics in this forum
You cannot edit your posts in this forum
You cannot delete your posts in this forum
You cannot vote in polls in this forum
You cannot attach files in this forum
You cannot download files in this forum