Discovery. Самогонщики / Moonshiners [7 сезон: 1-22 серии из 22] (2017-2018) HDTVRip 720р от GeneralFilm

Reply to topic
 
Author Message

Starik60 ®

Gender: Male

Longevity: 11 months 10 days

Posts: 171

Location: Москва, Россия

Post 05-Dec-2018 11:45

[Quote]

Самогонщики / Moonshiners
Год выпуска: 2017-2018
Жанр: Документальный, познавательный, криминал, расследование
Выпущено: США, Magilla Entertainment
Режиссер: Ноа Данофф, Брайан Гартон
В ролях: Джереми Шварц, Джош Оуэнс, Марк Роджерс, Тим Смит, Джефф Волдруп, Билл Кэнни, Стив Тикл, Джим Том Хедрик, Ланс Волдруп, Марк Рэмси
О фильме: Думаете, подпольное самогоноварение исчезло с отменой сухого закона? Ничего подобного! В наши дни этот бизнес по-прежнему остается незаконным, но от этого он не перестает быть менее доходным, а значит, притягательным! Производство самогона изначально было особенно распространено именно в Аппалачах. Всё началось еще в конце XVIII века, когда иммигранты из провинции Ольстер на севере Ирландии привезли в Америку свой рецепт uisce beatha (в пер. с гэльского «вода жизни»). Поселенцы делали виски без выдержки, и именно этот способ стал традиционным для Аппалачей. Сегодня рецепт постоянно меняет и совершенствуется для поиска новых вкусов. Как устроен бизнес смельчаков, занимающихся производством алкоголя в подпольных винокурнях, и как они организуют свою тайную деятельность? Какие опасности их поджидают, и как они умудряются справляться с проблемами в таких непростых условиях? Узнайте в новом сезоне шоу «Самогонщики»!

Качество: HDTVRip 720p
Видео: MPEG-4 AVC, ~ 4000 Кбит/с, 1280x720
Аудио: MP2, 2 ch, 192 Кбит/с
Продолжительность: 22 x ~ 00:44:00
Перевод: Профессиональный (одноголосый, закадровый)

Скриншоты



MediaInfo

General
Unique ID : 216234549930017886842474396816550884863 (0xA2AD426CC40071748128D822F2BF75FF)
Complete name : D:\Раздачи\Самогонщики. s07.720p GeneralFilm\01 Самогонщики. GeneralFilm.mkv
Format : Matroska
Format version : Version 2
File size : 1.29 GiB
Duration : 43 min 53 s
Overall bit rate mode : Constant
Overall bit rate : 4 197 kb/s
Writing application : Lavf54.63.104
Writing library : Lavf54.63.104
Video
ID : 1
Format : AVC
Format/Info : Advanced Video Codec
Format profile : High@L4.1
Format settings : CABAC / 3 Ref Frames
Format settings, CABAC : Yes
Format settings, ReFrames : 3 frames
Codec ID : V_MPEG4/ISO/AVC
Duration : 43 min 53 s
Bit rate mode : Constant
Bit rate : 4 000 kb/s
Width : 1 280 pixels
Height : 720 pixels
Display aspect ratio : 16:9
Frame rate mode : Constant
Frame rate : 50.000 FPS
Standard : PAL
Color space : YUV
Chroma subsampling : 4:2:0
Bit depth : 8 bits
Scan type : Progressive
Bits/(Pixel*Frame) : 0.087
Stream size : 1.20 GiB (93%)
Default : No
Forced : No
Color range : Limited
Color primaries : BT.709
Transfer characteristics : BT.709
Matrix coefficients : BT.709
Audio
ID : 2
Format : MPEG Audio
Format version : Version 1
Format profile : Layer 2
Codec ID : A_MPEG/L2
Codec ID/Hint : MP2
Duration : 43 min 53 s
Bit rate mode : Constant
Bit rate : 192 kb/s
Channel(s) : 2 channels
Sampling rate : 48.0 kHz
Compression mode : Lossy
Delay relative to video : 20 ms
Stream size : 60.3 MiB (5%)
Language : English
Default : Yes
Forced : No

Название серий

01. Спецвыпуск. Правила ремесла.
02. Змеиный укус.
03. Сияние в небе.
04. Удар молнии.
05. Экспресс-пони.
06. Второй шанс.
07. Легенды о блеске.
08. Передайте сок.
09. Тайник и захват.
10. Задержка развития.
11. Спецвыпуск. Рождественский сюрприз.
12. Скины в игре.
13. Проклятие прикрытие.
14. Дорога в ад.
15. Из пламени.
16. Спецвыпуск. Марк Роджерс: жажда жизни.
17. Высокий и сухой.
18. Засвеченный.
19. Не мошенник.
20. Фуражирование на долгую зиму впереди.
21. Последний гвоздь в крышку гроба.
22. Спецвыпуск. Лучшие хиты Марка и Диггера.
Релиз от:
[Profile] [PM]
Display posts:    
Reply to topic

Current time is: 23-Oct 08:51

All times are UTC + 3



You cannot post new topics in this forum
You cannot reply to topics in this forum
You cannot edit your posts in this forum
You cannot delete your posts in this forum
You cannot vote in polls in this forum
You cannot attach files in this forum
You cannot download files in this forum