Иван Царевич и Серый Волк 4 (2019) WEBRip от GeneralFilm

Reply to topic
 
Author Message

vsobbol ®

Gender: Male

Longevity: 1 year 6 months

Posts: 579

Location: Донецк

Post 01-Mar-2020 00:47

[Quote]

Иван Царевич и Серый Волк 4
Год выпуска: 2019
Жанр: Мультфильм, приключения, семейный
Выпущено: Россия, Кинокомпания «CTB», Анимационная студия «Мельница»
Режиссер: Дарина Шмидт
В ролях: Никита Ефремов, Иван Охлобыстин, Михаил Боярский, Равшана Куркова, Сергей Волчков, Мария Цветкова-Овсянникова, Александр Боярский, Олег Куликович, Анатолий Петров, Михаил Хрусталёв
О фильме: Зима в этом году в тридевятом царстве случилась особенно долгая и холодная. Прямо, как в прошлом году. И как в позапрошлом. Но, вот, пришла весна. Точнее — почти пришла. С вьюгой, морозами и снегом. Как обычно. И совсем было загрустили наши герои — Иван, Василиса, Серый Волк и Царь-батюшка, если бы вместе с почти-весной, не пришла новость — в Трисемнадцатом царстве пройдет ежегодный всесказочный конкурс песни. В прошлом году там победил хомяк Жорж, а чей голос окажется круче на этот раз? Царь решил, что Тридевятое царство будет представлять Кот-ученый. Не один все же мультфильм прошли вместе, да и все равно он про книги забыл, орет, точнее поет целыми днями на крышах, как и положено коту в марте. И, конечно, вся компания во главе с Иваном и Волком отправляется поддержать пушистого певца. Ведь свои нужны рядом. А то шоу-бизнес — настоящий серпентарий, и кто знает, какие темные силы стоят за коварными соперниками и их стремлением стать звездой.

Качество: WEBRip
Видео: XviD build 73, 720x400 (16:9), 24.000 fps, 1049 Kbps (0.152 bit/pixel)
Аудио: 48.0 kHz, MP3, 2/0 ch, 128 kbps
Продолжительность: 01:27:59
Перевод: Не требуется [Русский]
Cубтитры: нет

Скриншоты

MediaInfo

General
Complete name : D:\Razdachi\Ivan.Tsarevich.I.Seryj.Voik.4.2019.WEBRip.GeneralFilm.avi
Format : AVI
Format/Info : Audio Video Interleave
File size : 747 MiB
Duration : 1 h 27 min
Overall bit rate : 1 186 kb/s
Writing application : VirtualDubMod 1.5.10.3 | www.virtualdub-fr.org || (build 2550/release)
Writing library : VirtualDubMod build 2550/release
Video
ID : 0
Format : MPEG-4 Visual
Format profile : Advanced Simple@L5
Format settings : BVOP1 / Custom Matrix
Format settings, BVOP : 1
Format settings, QPel : No
Format settings, GMC : No warppoints
Format settings, Matrix : Custom
Codec ID : XVID
Codec ID/Hint : XviD
Duration : 1 h 27 min
Bit rate : 1 049 kb/s
Width : 720 pixels
Height : 400 pixels
Display aspect ratio : 16:9
Frame rate : 24.000 FPS
Color space : YUV
Chroma subsampling : 4:2:0
Bit depth : 8 bits
Scan type : Progressive
Compression mode : Lossy
Bits/(Pixel*Frame) : 0.152
Stream size : 660 MiB (88%)
Writing library : XviD 73
Audio
ID : 1
Format : MPEG Audio
Format version : Version 1
Format profile : Layer 3
Codec ID : 55
Codec ID/Hint : MP3
Duration : 1 h 27 min
Bit rate mode : Constant
Bit rate : 128 kb/s
Channel(s) : 2 channels
Sampling rate : 48.0 kHz
Frame rate : 41.667 FPS (1152 SPF)
Compression mode : Lossy
Stream size : 80.6 MiB (11%)
Alignment : Aligned on interleaves
Interleave, duration : 42 ms (1.00 video frame)
Interleave, preload duratio : 504 ms
Writing library : LAME3.99r
Encoding settings : -m s -V 4 -q 2 -lowpass 17 -b 128
Релиз от:
[Profile] [PM]
Display posts:    
Reply to topic

Current time is: 29-May 16:24

All times are UTC + 3



You cannot post new topics in this forum
You cannot reply to topics in this forum
You cannot edit your posts in this forum
You cannot delete your posts in this forum
You cannot vote in polls in this forum
You cannot attach files in this forum
You cannot download files in this forum