Паромщица [1-16 серии из 16] (2020) WEBRip от Files-x

Reply to topic
 
Author Message

bond74 ®

Gender: Male

Longevity: 1 year 6 months

Posts: 783

Post 31-Mar-2020 01:19

[Quote]

Паромщица Год выпуска: 2020
Жанр: Мелодрама
Выпущено: Россия, ООО "Кинокомпания Гамма"
Режиссер: Максим Демченко
В ролях: Глафира Тарханова, Александр Ратников, Андрей Барило, Андрей Фролов (II), Елена Дудина, Раиса Рязанова, Вадим Андреев, Владимир Стержаков, Александр Пашутин, Татьяна Рыбинец, Игорь Филиппов, Юлия Кудояр, Пётр Натаров, Александр Мартынов
О фильме: Семья Титовых – Надя, Лёва и их сын Костя – переезжает из Москвы в свой родной городок Излучинск, чтобы начать новую жизнь. Престижная работа, роскошный новый дом – всё складывается самым лучшим образом. Однако, радужным планам не суждено было сбыться. Титовы сразу оказываются в самой гуще событий маленького городка. Ночью на пароме убит паромщик. А в его убийстве обвиняют… Надю. Выйдя из тюрьмы она, она понимает, что никакой прежней жизни у нее больше нет. Все в городе, включая её собственного сына, её ненавидят. У мужа новая семья. А единственная работа, которую теперь Наде могут предложить – стать паромщицей на том самом судне, которое сломало всю ее жизнь, разрушило семью и отняло самое дорогое – сына. Теперь Надя твёрдо намерена доказать свою невиновность, выяснить, кто её подставил, вернуть своего сына – чего бы ей это ни стоило.

Качество: WEBRip
Видео: XviD, ~ 1600 Кбит/с, 720x400, 25 кадр/с
Аудио: AC3, 2 ch, 192 Кбит/с
Продолжительность: 16 х ~ 00:50:00
Перевод: Не требуется
Субтитры: нет

Скриншоты

MediaInfo

General
Complete name : H:fiiles xПаромщица .2020.WEB-DLRip.Files-x1. Паромщица .2020.WEB-DLRip.Files-x.avi
Format : AVI
Format/Info : Audio Video Interleave
File size : 669 MiB
Duration : 51mn 54s
Overall bit rate : 1 801 Kbps
Writing application : VirtualDubMod 1.5.10.3 | www.virtualdub-fr.org || (build 2550/release)
Writing library : VirtualDubMod build 2550/release
Video
ID : 0
Format : MPEG-4 Visual
Format profile : Advanced Simple@L5
Format settings, BVOP : 1
Format settings, QPel : No
Format settings, GMC : No warppoints
Format settings, Matrix : Custom
Codec ID : XVID
Codec ID/Hint : XviD
Duration : 51mn 54s
Bit rate : 1 600 Kbps
Width : 720 pixels
Height : 400 pixels
Display aspect ratio : 16:9
Frame rate : 25.000 fps
Color space : YUV
Chroma subsampling : 4:2:0
Bit depth : 8 bits
Scan type : Progressive
Compression mode : Lossy
Bits/(Pixel*Frame) : 0.222
Stream size : 594 MiB (89%)
Writing library : XviD 73
Audio
ID : 1
Format : AC-3
Format/Info : Audio Coding 3
Mode extension : CM (complete main)
Codec ID : 2000
Duration : 51mn 54s
Bit rate mode : Constant
Bit rate : 192 Kbps
Channel(s) : 2 channels
Channel positions : Front: L R
Sampling rate : 48.0 KHz
Bit depth : 16 bits
Compression mode : Lossy
Stream size : 71.3 MiB (11%)
Alignment : Split accross interleaves
Interleave, duration : 40 ms (1.00 video frame)
Interleave, preload duration : 500 ms

Раздача ведётся путём добавления новых серий

Внимание! Раздача ведётся путём добавления новых серий; при каждом добавлении создаётся новый торрент.
Чтобы начать докачку новой серии, пользователям необходимо сделать следующее:
1. Остановить скачивание;
2. Удалить старый торрент у себя из клиента (старые серии удалять не надо);
3. Скачать новый торрент и запустить его у себя в клиенте вместо старого, при этом указать клиенту путь в старую папку куда и должно происходить скачивание новых серий. Ваш клиент при этом должен произвести хеширование (проверку) старой папки и будет докачивать только те серии, которых у вас ещё нет. Старые серии при этом не удаляются, а продолжают раздаваться! Eсли вы уже удалили старые серии, то предотвратить повторную закачку старых серий можно, отжав галочку в соответствующих местах при запуске нового торрента.
Релиз от:

Release was prepared by RG Files-x

[Profile] [PM]
Display posts:    
Reply to topic

Current time is: 29-May 15:55

All times are UTC + 3



You cannot post new topics in this forum
You cannot reply to topics in this forum
You cannot edit your posts in this forum
You cannot delete your posts in this forum
You cannot vote in polls in this forum
You cannot attach files in this forum
You cannot download files in this forum