Кошки / Cats (2019) BDRip 720p | Лицензия

Reply to topic
 
Author Message

Monk ®

Gender: Male

Longevity: 1 year 6 months

Posts: 12030

Location: Казань

Post 04-Apr-2020 00:49

[Quote]

Кошки / Cats Год выпуска: 2019
Жанр: Мюзикл, фэнтези, драма, комедия
Выпущено: Великобритания, США, Working Title Films, Amblin Entertainment, Perfect World Pictures
Режиссер: Том Хупер
В ролях: Тейлор Свифт, Франческа Хэйуорд, Идрис Эльба, Джуди Денч, Иэн МакКеллен, Ребел Уилсон, Джеймс Корден, Метте Таули, Рэй Уинстон, Лори Дэвидсон, Роберт Фэйрчайлд, Дженнифер Хадсон
О фильме: На ежегодный кошачий бал собираются кошки из Племени избранных из разных уголков земли. Все они разные: породистые и беспородные, юные и старые, домашние любимцы и бездомные. Когда они собираются вместе, каждая кошка рассказывает о себе - чем же она так исключительна, и за что её можно считать избранной.
Качество: BDRip 720p
Видео: MPEG-4 AVC, 6583 Кбит/с, 1280x536
Аудио: Русский (AC3, 6 ch, 448 Кбит/с), английский (AC3, 6 ch, 640 Кбит/с)
Продолжительность: 01:49:58
Перевод: Дублированный [Лицензия]
Субтитры: Русские, английские

Скриншоты


MediaInfo

General
Unique ID : 204355024142236694282588788042695974909 (0x99BD58954D081B909A187E57FACC1FFD)
Complete name : C:\Cats.2019.BDRip.720p.ExKinoRay.mkv
Format : Matroska
Format version : Version 2
File size : 5.89 GiB
Duration : 1 h 49 min
Overall bit rate : 7 673 kb/s
Movie name : Cats 2019 from ExKinoRay
Encoded date : UTC 2020-05-21 21:13:46
Writing application : mkvmerge v5.6.0 ('Kenya Kane') built on May 27 2012 16:44:04
Writing library : libebml v1.2.3 + libmatroska v1.3.0
Video
ID : 1
Format : AVC
Format/Info : Advanced Video Codec
Format profile : High@L4.1
Format settings, CABAC : Yes
Format settings, ReFrames : 12 frames
Codec ID : V_MPEG4/ISO/AVC
Duration : 1 h 49 min
Bit rate : 6 433 kb/s
Width : 1 280 pixels
Height : 536 pixels
Display aspect ratio : 2.40:1
Frame rate mode : Constant
Frame rate : 23.976 (24000/1001) FPS
Color space : YUV
Chroma subsampling : 4:2:0
Bit depth : 8 bits
Scan type : Progressive
Bits/(Pixel*Frame) : 0.391
Stream size : 4.94 GiB (84%)
Title : iFT
Writing library : x264 core 159 r2991+50 ~ Encoded by Mocunaman in Portugal
Encoding settings : cabac=1 / ref=12 / deblock=1:-3:-3 / analyse=0x3:0x113 / me=umh / subme=11 / psy=1 / fade_compensate=0.00 / psy_rd=1.00:0.00 / mixed_ref=1 / me_range=32 / chroma_me=1 / trellis=2 / 8x8dct=1 / cqm=0 / deadzone=21,11 / fast_pskip=0 / chroma_qp_offset=-2 / threads=17 / lookahead_threads=2 / sliced_threads=0 / nr=0 / decimate=0 / interlaced=0 / bluray_compat=0 / constrained_intra=0 / fgo=0 / bframes=9 / b_pyramid=2 / b_adapt=2 / b_bias=0 / direct=3 / weightb=1 / open_gop=0 / weightp=2 / keyint=250 / keyint_min=23 / scenecut=40 / intra_refresh=0 / rc_lookahead=60 / rc=crf / mbtree=0 / crf=14.0000 / qcomp=0.60 / qpmin=0:0:0 / qpmax=69:69:69 / qpstep=4 / vbv_maxrate=62500 / vbv_bufsize=78125 / crf_max=0.0 / nal_hrd=none / filler=0 / ip_ratio=1.30 / pb_ratio=1.20 / aq=3:0.80 / aq-sensitivity=10.00 / aq-factor=1.00:1.00:1.00 / aq2=0 / aq3=0
Language : English
Default : Yes
Forced : No
Color range : Limited
Color primaries : BT.709
Transfer characteristics : BT.709
Matrix coefficients : BT.709
Audio #1
ID : 2
Format : AC-3
Format/Info : Audio Coding 3
Mode extension : CM (complete main)
Format settings, Endianness : Big
Codec ID : A_AC3
Duration : 1 h 49 min
Bit rate mode : Constant
Bit rate : 448 kb/s
Channel(s) : 6 channels
Channel positions : Front: L C R, Side: L R, LFE
Sampling rate : 48.0 kHz
Frame rate : 31.250 FPS (1536 spf)
Compression mode : Lossy
Stream size : 352 MiB (6%)
Title : Dub (Blu-ray EUR)
Language : Russian
Default : Yes
Forced : No
Audio #2
ID : 3
Format : AC-3
Format/Info : Audio Coding 3
Mode extension : CM (complete main)
Format settings, Endianness : Big
Codec ID : A_AC3
Duration : 1 h 49 min
Bit rate mode : Constant
Bit rate : 640 kb/s
Channel(s) : 6 channels
Channel positions : Front: L C R, Side: L R, LFE
Sampling rate : 48.0 kHz
Frame rate : 31.250 FPS (1536 spf)
Compression mode : Lossy
Stream size : 503 MiB (8%)
Title : Original
Language : English
Default : No
Forced : No
Text #1
ID : 4
Format : UTF-8
Codec ID : S_TEXT/UTF8
Codec ID/Info : UTF-8 Plain Text
Title : Forced (Songs)
Language : Russian
Default : Yes
Forced : Yes
Text #2
ID : 5
Format : UTF-8
Codec ID : S_TEXT/UTF8
Codec ID/Info : UTF-8 Plain Text
Title : Full
Language : Russian
Default : No
Forced : No
Text #3
ID : 6
Format : UTF-8
Codec ID : S_TEXT/UTF8
Codec ID/Info : UTF-8 Plain Text
Title : Full
Language : English
Default : No
Forced : No
Text #4
ID : 7
Format : UTF-8
Codec ID : S_TEXT/UTF8
Codec ID/Info : UTF-8 Plain Text
Title : SDH
Language : English
Default : No
Forced : No
Menu
00:00:00.000 : en:Chapter 01
00:07:44.464 : en:Chapter 02
00:11:33.902 : en:Chapter 03
00:13:32.061 : en:Chapter 04
00:18:05.918 : en:Chapter 05
00:23:01.839 : en:Chapter 06
00:26:31.590 : en:Chapter 07
00:32:34.286 : en:Chapter 08
00:39:38.960 : en:Chapter 09
00:45:09.332 : en:Chapter 10
00:50:32.821 : en:Chapter 11
00:58:08.360 : en:Chapter 12
01:04:10.263 : en:Chapter 13
01:09:11.147 : en:Chapter 14
01:14:19.705 : en:Chapter 15
01:16:02.349 : en:Chapter 16
01:25:08.145 : en:Chapter 17
01:32:09.858 : en:Chapter 18
01:36:56.644 : en:Chapter 19
01:41:21.492 : en:Chapter 20
[Profile] [PM]
Display posts:    
Reply to topic

Current time is: 29-May 15:57

All times are UTC + 3



You cannot post new topics in this forum
You cannot reply to topics in this forum
You cannot edit your posts in this forum
You cannot delete your posts in this forum
You cannot vote in polls in this forum
You cannot attach files in this forum
You cannot download files in this forum