Легенды «Смертельной битвы»: Месть Скорпиона / Mortal Kombat Legends: Scorpions Revenge (2020) BDRip-AVC [MVO NewComers] от R.G.Generalfilm

Reply to topic
 
Author Message

White Smoke ®

Gender: Male

Longevity: 1 year 6 months

Posts: 133

Post 24-Apr-2020 20:09

[Quote]

Легенды «Смертельной битвы»: Месть Скорпиона / Mortal Kombat Legends: Scorpions RevengeГод выпуска: 2020
Жанр: Мультфильм, фэнтези, боевик
Выпущено: США DC Entertainment, Midway Games, Warner Bros. Animation
Режиссер: Этан Сполдинг
В ролях: Дженнифер Карпентер (Sonya Blade, озвучка), Джоэл МакХэйл (Johnny Cage, озвучка), Айк Амади (Jax Briggs, озвучка), Стивен Блум (Bi-Han / Sub-Zero, озвучка), Артт Батлер (Shang Tsung / Lin Kuei Assassin, озвучка), Дэрин Де Пол (Quan Chi, озвучка), Робин Аткин Даунс (Kano / Shinnok, озвучка), Грэй Гриффин (Kitana / Satoshi Hasashi, озвучка), Дэйв Митчелл (Raiden / Lin Kuei Warrior, озвучка), Кевин Майкл Ричардсон (Goro / Bystander, озвучка), Джордан Родригез (Liu Kang, озвучка), Патрик Сэйтц (Hanzo Hasashi / Scorpion, озвучка)
О фильме: Чернокнижник Шан Цзун устраивает межпространственный турнир по боевым искусствам, где победитель бросит ему вызов за судьбу их родного мира. В нем решает принять участие жаждущий отомстить за смерть семьи и клана Скорпион.

Качество: BDRip-AVC
Видео: MPEG-4 AVC,1024x576 (16:9), 1468 kbps, 23 fps, 0,104 bpp
Аудио: русский, AC3, 5.1, 48 kHz, 448 kbps CBR
Продолжительность: 01:19:59
Перевод : Профессиональный многоголосый [NewComers]
Субтитры: Русские (форсированные на надписи)
Навигация по главам: есть
Присутствует ненормативная лексика!

Скриншоты

MediaInfo

General
Unique ID : 183875234868891051121962770972875138787 (0x8A5515039F55220E8A48D1BD416BA6E3)
Complete name : E:\Запись с тв\Ohota na pevicu 2020 HDTV 1080p.R.G.Generalfilm\Ohota na pevicu.s01.e02.2020.HDTV 1080p.by.White Smoke.R.G.Generalfilm.mkv
Format : Matroska
Format version : Version 4
File size : 2.25 GiB
Duration : 44 min 46 s
Overall bit rate mode : Constant
Overall bit rate : 7 197 kb/s
Movie name : Ohota na pevicu.s01.e02.2020.HDTV 1080p.by.White Smoke.R.G.Generalfilm.mkv
Encoded date : UTC 2020-04-21 13:05:59
Writing application : mkvmerge v6.8.0 ('Theme for Great Cities') 64bit built on Mar 2 2014 21:34:26
Writing library : libebml v1.3.0 + libmatroska v1.4.1
Cover : Yes
Attachments : cover.jpg
Video
ID : 1
Format : AVC
Format/Info : Advanced Video Codec
Format profile : High@L4.1
Format settings : CABAC / 3 Ref Frames
Format settings, CABAC : Yes
Format settings, RefFrames : 3 frames
Codec ID : V_MPEG4/ISO/AVC
Duration : 44 min 46 s
Bit rate mode : Constant
Bit rate : 7 051 kb/s
Width : 1 920 pixels
Height : 1 080 pixels
Display aspect ratio : 16:9
Frame rate mode : Constant
Frame rate : 25.000 FPS
Standard : PAL
Color space : YUV
Chroma subsampling : 4:2:0
Bit depth : 8 bits
Scan type : Progressive
Bits/(Pixel*Frame) : 0.136
Stream size : 2.15 GiB (95%)
Default : No
Forced : No
Color range : Limited
Color primaries : BT.709
Transfer characteristics : BT.709
Matrix coefficients : BT.709
Audio
ID : 2
Format : AC-3
Format/Info : Audio Coding 3
Commercial name : Dolby Digital
Codec ID : A_AC3
Duration : 44 min 46 s
Bit rate mode : Constant
Bit rate : 192 kb/s
Channel(s) : 2 channels
Channel layout : L R
Sampling rate : 48.0 kHz
Frame rate : 31.250 FPS (1536 SPF)
Bit depth : 16 bits
Compression mode : Lossy
Stream size : 61.5 MiB (3%)
Service kind : Complete Main
Default : Yes
Forced : No

Доп. информация


Мировая премьера: 12 апреля 2020 (США)
MPAA: R - Лицам до 17 лет обязательно присутствие взрослого
Релиз от: за Постер спасибо irinadyach
[Profile] [PM]
Display posts:    
Reply to topic

Current time is: 29-May 17:36

All times are UTC + 3



You cannot post new topics in this forum
You cannot reply to topics in this forum
You cannot edit your posts in this forum
You cannot delete your posts in this forum
You cannot vote in polls in this forum
You cannot attach files in this forum
You cannot download files in this forum