Шугалей - Трилогия (2020) HDTV 1080р от R.G.Generalfilm

Reply to topic
 
Author Message

HardwareMining ®

Gender: Male

Longevity: 1 year 11 months

Posts: 54

Post 03-May-2020 12:57

[Quote]

Шугалей - Трилогия

Шугалей - 2020

Шугалей / ShugaleiРусских не сломитьГод выпуска: 2020
Жанр: Детектив, приключения
Выпущено: Россия, Тунис, «Кино альянс»
Режиссер: Денис Нейманд
В ролях: Кирилл Полухин (Шугалей), Олег Абалян (Самер), Сергей Яценюк (Александр), Олег Метелев (маршал), Халед Хуисса (Хара), Мохамед Али Бен Джема (начальник охраны)
О фильме: Российские социологи, Максим Шугалей и его спутник и переводчик Самер Суэйфан, отправляются в страну, разрываемую на части воинствующими группировками, по официальному приглашению. Их задача – проведение исследования, которое должно было бы положить конец боевым действиям. Однако в ходе работы в их руки попадает информация, которая может дорого стоить «марионеточному» правительству и не должна просочиться за пределы Ливии. В результате похищения русские специалисты оказываются в частной тюрьме и больше года, переживая пытки и унижения, ждут хотя бы официального обвинения. Дипломатические попытки мирно решить вопрос заходят в тупик, и российская сторона начинает готовить спасательную операцию.

Качество: HDTV 1080р
Видео: MPEG-4 AVC,1920x1080 (16:9), 7050 kbps, 25 fps, 0,136 bpp
Аудио: AC3, 2.0, 48 kHz, 192 kbps CBR
Продолжительность: 01:40:00
Перевод: Не требуется
Субтитры: нет

Скриншоты

MediaInfo

Общее
Уникальный идентификатор : 208810555030274866260582739783307266692 (0x9D1773375FC87548930F278631548A84)
Полное имя : G:\GF\Shugalei.HDTV.1080p.by.HardwareMining.R.G.Generalfilm.mkv
Формат : Matroska
Версия формата : Version 4
Размер файла : 5,08 Гбайт
Продолжительность : 1 ч. 40 м.
Режим общего битрейта : Постоянный
Общий поток : 7 214 Кбит/сек
Дата кодирования : UTC 2020-05-02 19:49:42
Программа кодирования : mkvmerge v6.8.0 ('Theme for Great Cities') 64bit built on Mar 2 2014 21:34:26
Библиотека кодирования : libebml v1.3.0 + libmatroska v1.4.1
Видео
Идентификатор : 1
Формат : AVC
Формат/Информация : Advanced Video Codec
Профиль формата : High@L4.1
Настройки формата : CABAC / 3 Ref Frames
Параметр CABAC формата : Да
Параметр RefFrames формата : 3 кадра
Идентификатор кодека : V_MPEG4/ISO/AVC
Продолжительность : 1 ч. 40 м.
Вид битрейта : Постоянный
Битрейт : 7 051 Кбит/сек
Ширина : 1 920 пикселей
Высота : 1 080 пикселей
Соотношение сторон : 16:9
Режим частоты кадров : Постоянный
Частота кадров : 25,000 кадров/сек
Стандарт вещания : PAL
Цветовое пространство : YUV
Субдискретизация насыщенности : 4:2:0
Битовая глубина : 8 бит
Тип развёртки : Прогрессивная
Бит/(Пиксели*Кадры) : 0.136
Размер потока : 4,85 Гбайт (95%)
Default : Да
Forced : Нет
Цветовой диапазон : Limited
Основные цвета : BT.709
Характеристики трансфера : BT.709
Коэффициенты матрицы : BT.709
Duration_Source : General_Duration
Аудио
Идентификатор : 2
Формат : AC-3
Формат/Информация : Audio Coding 3
Коммерческое название : Dolby Digital
Идентификатор кодека : A_AC3
Продолжительность : 1 ч. 40 м.
Вид битрейта : Постоянный
Битрейт : 192 Кбит/сек
Каналы : 2 канала
Channel layout : L R
Частота : 48,0 КГц
Частота кадров : 31,250 кадров/сек (1536 SPF)
Метод сжатия : С потерями
Размер потока : 139 Мбайт (3%)
Service kind : Complete Main
Default : Да
Forced : Нет
Duration_Source : General_Duration

Доп. информация


Премьера (РФ):
1 мая 2020 Канал НТВ
Релиз от:

Шугалей 2 - 2020

Шугалей 2 Год выпуска: 2020
Жанр: Боевик, приключения
Выпущено: Россия, ООО «Триикс Медия»
Режиссер: Максим Бриус
В ролях: Кирилл Полухин, Олег Абалян, Сергей Яценюк
О фильме: Российский социолог Максим Шугалей и его коллега-переводчик Самер Суэйфан до сих пор содержатся в ливийской тюрьме. Уже больше года они ежедневно подвергаются пыткам и психологическому насилию. Находясь в заключении, Максим Шугалей сталкивается с разными людьми, которые оказываются, иногда неосознанно, источниками информации о ситуации в Триполи. Слушая их истории, социолог буквально по крупицам собирает ценную информацию, которая может стать решающей для всего мирового сообщества.

Качество: HDTV 1080p
Видео: MPEG-4 AVC,1920x1080 (16:9), 7050 kbps, 25 fps, 0,136 bpp
Аудио: русский, AC3, 2.0, 48 kHz, 192 kbps CBR
Продолжительность: 01:59:26
Перевод / Озвучка: Не требуется
Субтитры: нет

Скриншоты

MediaInfo

General
Unique ID : 205814930894102222182675694845693771921 (0x9AD6838B17068938B9B2C42ABBFBC091)
Complete name : G:\GF\Shugalei - Dilogy\Shugalei.2.HDTV.1080p.by.HardwareMining.R.G.Generalfilm.mkv
Format : Matroska
Format version : Version 4 / Version 2
File size : 6.03 GiB
Duration : 1 h 59 min
Overall bit rate mode : Constant
Overall bit rate : 7 233 kb/s
Movie name : HardwareMining.R.G.Generalfilm
Encoded date : UTC 2020-09-11 17:01:09
Writing application : mkvmerge v6.8.0 ('Theme for Great Cities') 64bit built on Mar 2 2014 21:34:26
Writing library : libebml v1.3.0 + libmatroska v1.4.1
Cover : Yes
Attachments : cover.jpg
Video
ID : 1
Format : AVC
Format/Info : Advanced Video Codec
Format profile : High@L4.1
Format settings, CABAC : Yes
Format settings, ReFrames : 3 frames
Format settings, GOP : M=3, N=33
Codec ID : V_MPEG4/ISO/AVC
Duration : 1 h 59 min
Bit rate mode : Constant
Bit rate : 7 051 kb/s
Width : 1 920 pixels
Height : 1 080 pixels
Display aspect ratio : 16:9
Frame rate mode : Constant
Frame rate : 25.000 FPS
Standard : PAL
Color space : YUV
Chroma subsampling : 4:2:0
Bit depth : 8 bits
Scan type : Progressive
Bits/(Pixel*Frame) : 0.136
Stream size : 5.75 GiB (95%)
Default : Yes
Forced : No
Color range : Limited
Color primaries : BT.709
Transfer characteristics : BT.709
Matrix coefficients : BT.709
Audio
ID : 2
Format : AC-3
Format/Info : Audio Coding 3
Mode extension : CM (complete main)
Format settings, Endianness : Big
Codec ID : A_AC3
Duration : 1 h 59 min
Bit rate mode : Constant
Bit rate : 192 kb/s
Channel(s) : 2 channels
Channel positions : Front: L R
Sampling rate : 48.0 kHz
Frame rate : 31.250 FPS (1536 spf)
Compression mode : Lossy
Stream size : 164 MiB (3%)
Language : Russian
Default : Yes
Forced : No
Релиз от:

Шугалей 3 - 2021

Шугалей 3 Год выпуска: 2021
Жанр: боевик, приключения
Выпущено: Россия, ООО «Кино альянс»
Режиссер: Михаил Вассербаум
В ролях: Кирилл Полухин, Олег Абалян, Алексей Кравченко, Евгений Терских, Владимир Петров (VIII), Дмитрий Сутырин, Екатерина Решетникова, Самвел Мужикян, Виталий Такс, Сергей Яценюк
О фильме: Максим Шугалей и Самер Суэйфан после долгого плена в ливийской тюрьме «Митига» наконец-то возвращаются в Россию. Несколько месяцев спустя на Шугалея выходит бывший управляющий банка в Триполи Фарид и предлагает встретиться в Египте — у него появилась новая информация о террористах в Ливии. Но встреча друзей в Каире так и не состоится. Чтобы помочь Фариду избежать собственной судьбы, Максиму придется на время отложить свои планы…

Качество: HDTV 1080р
Видео: MPEG-4 AVC,1920x1080 (16:9), 7050 kbps, 25 fps, 0,136 bpp
Аудио: AC3, 2.0, 48 kHz, 192 kbps CBR
Продолжительность: 01:32:02
Перевод: Не требуется
Субтитры: нет

Скриншоты

MediaInfo

General
Unique ID : 202901523547562191437873221649787160433 (0x98A56978954F0FFA8FC1B3F686D28771)
Complete name : G:\Torrent\Shugalei -Trilogy\Shugalei.3.HDTV.1080p.by.Hardware Mining.R.G.Generalfilm.mkv
Format : Matroska
Format version : Version 4
File size : 4.64 GiB
Duration : 1 h 32 min
Overall bit rate mode : Constant
Overall bit rate : 7 214 kb/s
Movie name : Rip.by.HardwareMining.R.G.Generalfilm
Encoded date : UTC 2021-09-06 16:18:09
Writing application : mkvmerge v6.8.0 ('Theme for Great Cities') 64bit built on Mar 2 2014 21:34:26
Writing library : libebml v1.3.0 + libmatroska v1.4.1
Cover : Yes
Attachments : cover.png
Video
ID : 2
Format : AVC
Format/Info : Advanced Video Codec
Format profile : High@L4.1
Format settings : CABAC / 3 Ref Frames
Format settings, CABAC : Yes
Format settings, Reference : 3 frames
Codec ID : V_MPEG4/ISO/AVC
Duration : 1 h 32 min
Bit rate mode : Constant
Bit rate : 7 051 kb/s
Width : 1 920 pixels
Height : 1 080 pixels
Display aspect ratio : 16:9
Frame rate mode : Constant
Frame rate : 25.000 FPS
Standard : PAL
Color space : YUV
Chroma subsampling : 4:2:0
Bit depth : 8 bits
Scan type : Progressive
Bits/(Pixel*Frame) : 0.136
Stream size : 4.42 GiB (95%)
Default : Yes
Forced : No
Color range : Limited
Color primaries : BT.709
Transfer characteristics : BT.709
Matrix coefficients : BT.709
Audio
ID : 1
Format : AC-3
Format/Info : Audio Coding 3
Commercial name : Dolby Digital
Codec ID : A_AC3
Duration : 1 h 32 min
Bit rate mode : Constant
Bit rate : 192 kb/s
Channel(s) : 2 channels
Channel layout : L R
Sampling rate : 48.0 kHz
Frame rate : 31.250 FPS (1536 SPF)
Compression mode : Lossy
Stream size : 126 MiB (3%)
Language : Russian
Service kind : Complete Main
Default : Yes
Forced : No
Релиз от:


Last edited by HardwareMining on 2021-09-07 10:29; edited 3 times in total
[Profile] [PM]

HardwareMining ®

Gender: Male

Longevity: 1 year 11 months

Posts: 54

Post 12-Sep-2020 15:49 (after 4 months 9 days)

[Quote]

Релиз обновлён. Добавил 2 часть
[Profile] [PM]

HardwareMining ®

Gender: Male

Longevity: 1 year 11 months

Posts: 54

Post 07-Sep-2021 10:25 (after 11 months 24 days)

[Quote]

Релиз обновлён 7.09.2021. Добавил 3 часть
[Profile] [PM]
Display posts:    
Reply to topic

Current time is: 21-Sep 13:17

All times are UTC + 3



You cannot post new topics in this forum
You cannot reply to topics in this forum
You cannot edit your posts in this forum
You cannot delete your posts in this forum
You cannot vote in polls in this forum
You cannot attach files in this forum
You cannot download files in this forum