Человек и закон [эфир 15.05] (2020) SATRip от GeneralFilm

Reply to topic
 
Author Message

Starik60 ®

Gender: Male

Longevity: 1 year 6 months

Posts: 239

Location: Москва, Россия

Post 15-May-2020 11:24

[Quote]

Человек и закон
Год выпуска: 2020
Жанр: Документальный, расследование
Выпущено: Россия, Телекомпания "Останкино"
Режиссер: Денис Пиманов
Ведущий: Алексей Пиманов
О фильме: Общественно-политическая программа "Человек и закон" выходит на главном телеканале страны уже 35 лет (Алексей Пиманов ведет программу с 1996 года). Столь "преклонный возраст" ничуть не мешает программе оставаться одной из самых востребованных и актуальных на отечественном телевидении. Быть может потому, что основные темы - борьба с организованной преступностью, расследования о коррупции в высших эшелонах власти, криминальные истории…
Официальный сайт
Качество: SATRip
Видео: XviD, 1600 Кбит/с, 720x400
Аудио: AC3, 2 ch, 192 Кбит/с
Продолжительность: 01:03:00
Перевод: Не требуется

Скриншоты


MediaInfo


General
Complete name : G:\Temp\Человек и закон 15.05.2020.GeneralFilm.avi
Format : AVI
Format/Info : Audio Video Interleave
File size : 632 MiB
Duration : 49 min 3 s
Overall bit rate : 1 802 kb/s
Writing application : VirtualDubMod 1.5.10.3 | www.virtualdub-fr.org || (build 2550/release)
Writing library : VirtualDubMod build 2550/release
Video
ID : 0
Format : MPEG-4 Visual
Format profile : Advanced Simple@L5
Format settings : BVOP1 / Custom Matrix
Format settings, BVOP : 1
Format settings, QPel : No
Format settings, GMC : No warppoints
Format settings, Matrix : Custom
Codec ID : XVID
Codec ID/Hint : XviD
Duration : 49 min 3 s
Bit rate : 1 600 kb/s
Width : 720 pixels
Height : 400 pixels
Display aspect ratio : 16:9
Frame rate : 25.000 FPS
Color space : YUV
Chroma subsampling : 4:2:0
Bit depth : 8 bits
Scan type : Progressive
Compression mode : Lossy
Bits/(Pixel*Frame) : 0.222
Stream size : 561 MiB (89%)
Writing library : XviD 73
Audio
ID : 1
Format : AC-3
Format/Info : Audio Coding 3
Commercial name : Dolby Digital
Codec ID : 2000
Duration : 49 min 3 s
Bit rate mode : Constant
Bit rate : 192 kb/s
Channel(s) : 2 channels
Channel layout : L R
Sampling rate : 48.0 kHz
Frame rate : 31.250 FPS (1536 SPF)
Bit depth : 16 bits
Compression mode : Lossy
Stream size : 67.4 MiB (11%)
Alignment : Split accross interleaves
Interleave, duration : 40 ms (1.00 video frame)
Interleave, preload duratio : 500 ms
Service kind : Complete Main

Содержание


Коронавирус. Хроники уходящей недели.
- В стране начинают снимать ограничения, связанные с эпидемией. 11 регионов планиру-ют в ближайшее время выходить из режима самоизоляции.
- Уральские заключенные пишут песни и снимают клипы. Директор Нижегородского ху-дожественного музея тоже запел.
- А в соцсетях поднялась волна возмущения против гламурных красавиц от Бузовой до Бони за их фальшивые поздравления с 9 мая. Вердикт: просто покрасоваться решили в военной форме.
- Майские праздники по большей части прошли онлайн, начиная с воздушного парада над Красной площадью. Отличился бывший сотрудник таможни, который отправился в столичный парк на традиционные шашлыки. Регионы вели себя гораздо вольготнее. Вице-мэр Новороссийска за отдых на природе поплатилась должностью.
- А тем временем медики продолжают свою нелегкую вахту. 26-летний врач-травматолог из Хакасии умер от коронавируса — заразился от пришедшего к нему больного гражда-нина.
- Небывалый всплеск интернет-мошенничества — одни предлагают вернуть деньги за авиабилеты, другие — выплатить детские пособия. Выманивают данные карт.
- В магазинах шаговой доступности продают втридорога защитные маски из гуманитар-ной помощи, пришедшей из Китая. Отправились выяснять. Фейк!
- Но как же правильно носить маски и перчатки и что считать «общественным местом»?! Расскажем.
- Новые тесты. Анализ на антитела. Он показывает, кто уже переболел и приобрел имму-нитет, а кто нет. Очень важный показатель для отмены режима самоизоляции.
Соседи и соседские войны. Продолжение. Дачники. После сюжета программы пришла информация, что в Госдуме, на законодательном уровне прорабатывается вопрос. И в от-ношении соседей по многоквартирным домам. И по поводу дачников (сносить сарай, если он соседям солнечный свет загораживает, или нет; как правильно копать колодец, чтобы у других вода не ушла; чьи яблоки, если яблоня растет по одну сторону забора, а ветви с плодами свешиваются по другую сторону). Непридуманные истории.
«Слуга народа». Год у власти. Президент Зеленский не выполнил ни одного предвыбор-ного обещания, уклоняется от реализации решений «нормандской четверки» и вынашивает странные планы по возвращению Крыма.
Добрые дела. В Питере 80-летняя блокадница Галина Ивановна Яковлева заботится о своих подопечных: развозит продукты, лекарства, помогает своим оптимизмом и задором словом. Несмотря и вопреки всем обстоятельствам.
Релиз от:
[Profile] [PM]
Display posts:    
Reply to topic

Current time is: 29-May 16:57

All times are UTC + 3



You cannot post new topics in this forum
You cannot reply to topics in this forum
You cannot edit your posts in this forum
You cannot delete your posts in this forum
You cannot vote in polls in this forum
You cannot attach files in this forum
You cannot download files in this forum