Адмиралы района [1 сезон: 1-14 серии из 16] (2020) HDTV 1080p от R.G.Generalfilm

Reply to topic
 
Author Message

White Smoke ®

Gender: Male

Longevity: 1 year 6 months

Posts: 133

Post 22-May-2020 20:33

[Quote]

Адмиралы районаГод выпуска: 2020
Жанр: Детектив, триллер
Выпущено: Россия, Триикс Медиа
Режиссер: Сергей Полуянов, Михаил Вассербаум
В ролях: Максим Дахненко (майор Андрей Девятов), Эдуард Флёров (полковник Виктор Городецкий), Заза Чантурия (майор Роман Аверин), Евгений Никитин (генерал Рубцов), Андрей Коровниченко (Старыгин), Денис Васильев (Василий Подгоняев), Георгий Болонев (Олег Сивоченко), Алексей Фалилеев (чиновник и бизнесмен Круглов), Сергей Шоколов (Яков Семёнович Фельдман), Жанна Куприянова (Василиса), Михаил Новиков (сержант Степанчук), Михаил Михальков (опер)
О фильме: Действие сериала развивается в Новоадмиралтейском районе Санкт-Петербурга. К началу сериала криминальная обстановка в районе оставляет желать лучшего. В крупном торговом центре предотвращен теракт – случайно оказавшемуся на месте бывшему полковнику МВД Игнатьеву удалось отогнать в безлюдное место автомобиль, начиненный взрывчаткой. Жертв нет, однако сам Игнатьев не успевает выскочить из автомобиля и погибает от взрыва. Для ФСБ и особенно для друга погибшего Игнатьева - майора Девятова, делом чести является раскрытие преступления, произошедшего в самом криминогенном районе города - Новоадмиралтейском. Руководство местного полицейского управления явно попустительствует и, очевидно, по уши погрязло в коррупции. Чтобы доказать это, генералу МВД Рубцову приходится набрать команду новых, не замешанных в коррупции, оперов. Совместно они разрабатывают спецоперацию по изобличению руководства УМВД Новоадмиралтейского района, после чего новоявленные Адмиралы района соглашаются продолжить работу по чистке «авгиевых конюшен» - наследия предыдущего руководства.

Качество: HDTV 1080p
Видео: MPEG-4 AVC,1920x1080 (16:9), 7050 kbps, 25 fps, 0,136 bpp
Аудио: AC3, 2.0, 48 kHz, 192 kbps CBR
Продолжительность: ~ 00:49:52
Перевод : Не требуется
Субтитры: нет

Скриншоты

MediaInfo

General
Unique ID : 235129502269981623938165815655130591904 (0xB0E44B8013EBE92D982AE2EF0F09F2A0)
Complete name : E:\Запись с тв\Admiraly rajona 2020 HDTV 1080p.R.G.Generalfilm\Admiraly rajona.s01.e01.2020.HDTV 1080p.by.White Smoke.R.G.Generalfilm.mkv
Format : Matroska
Format version : Version 4 / Version 2
File size : 2.52 GiB
Duration : 49 min
Overall bit rate mode : Constant
Overall bit rate : 7 234 kb/s
Movie name : Admiraly rajona.s01.e01.2020.HDTV 1080p.by.White Smoke.R.G.Generalfilm.mkv
Encoded date : UTC 2020-05-22 15:12:41
Writing application : mkvmerge v6.8.0 ('Theme for Great Cities') 64bit built on Mar 2 2014 21:34:26
Writing library : libebml v1.3.0 + libmatroska v1.4.1
Cover : Yes
Attachments : cover.jpg
Video
ID : 1
Format : AVC
Format/Info : Advanced Video Codec
Format profile : High@L4.1
Format settings, CABAC : Yes
Format settings, ReFrames : 3 frames
Codec ID : V_MPEG4/ISO/AVC
Duration : 49 min
Bit rate mode : Constant
Bit rate : 7 051 kb/s
Width : 1 920 pixels
Height : 1 080 pixels
Display aspect ratio : 16:9
Frame rate mode : Constant
Frame rate : 25.000 FPS
Standard : PAL
Color space : YUV
Chroma subsampling : 4:2:0
Bit depth : 8 bits
Scan type : Progressive
Bits/(Pixel*Frame) : 0.136
Stream size : 2.40 GiB (95%)
Default : Yes
Forced : No
Color range : Limited
Color primaries : BT.709
Transfer characteristics : BT.709
Matrix coefficients : BT.709
Audio
ID : 2
Format : AC-3
Format/Info : Audio Coding 3
Mode extension : CM (complete main)
Format settings, Endianness : Big
Codec ID : A_AC3
Duration : 49 min
Bit rate mode : Constant
Bit rate : 192 kb/s
Channel(s) : 2 channels
Channel positions : Front: L R
Sampling rate : 48.0 kHz
Frame rate : 31.250 FPS (1536 spf)
Compression mode : Lossy
Stream size : 68.5 MiB (3%)
Default : Yes
Forced : No

Знаете ли Вы, что...

  • В сериале, помимо привычной архитектуры северной столицы, фигурирует «новый» Петербург: новостройки Приморского района, намывная территория Васильевского острова («Морской фасад»), внутригородская магистраль «Западный Скоростной Диаметр», а также самый северный и самый высокий в России и Европе небоскрёб «Лахта Центр» со штаб-квартирой группы «Газпром».

Раздача ведётся путём добавления новых серий

Внимание! Раздача ведётся путём добавления новых серий; при каждом добавлении создаётся новый торрент.
Чтобы начать докачку новой серии, пользователям необходимо сделать следующее:
1. Остановить скачивание;
2. Удалить старый торрент у себя из клиента (старые серии удалять не надо);
3. Скачать новый торрент и запустить его у себя в клиенте вместо старого, при этом указать клиенту путь в старую папку куда и должно происходить скачивание новых серий. Ваш клиент при этом должен произвести хеширование (проверку) старой папки и будет докачивать только те серии, которых у вас ещё нет. Старые серии при этом не удаляются, а продолжают раздаваться! Eсли вы уже удалили старые серии, то предотвратить повторную закачку старых серий можно, отжав галочку в соответствующих местах при запуске нового торрента.
Релиз от:
[Profile] [PM]
Display posts:    
Reply to topic

Current time is: 29-May 17:17

All times are UTC + 3



You cannot post new topics in this forum
You cannot reply to topics in this forum
You cannot edit your posts in this forum
You cannot delete your posts in this forum
You cannot vote in polls in this forum
You cannot attach files in this forum
You cannot download files in this forum