Капитанша [1 сезон: 1-16 серии из 16] (2017) WEBRip-AVC от Files-x

Reply to topic
 
Author Message

Серый1779 ®

Gender: Male

Longevity: 1 year 6 months

Posts: 1020

Location: Украина

Post 23-May-2020 00:58

[Quote]

Капитанша Год выпуска: 2017
Жанр: Мелодрама, приключения
Выпущено: Украина, кинокомпания «ABC Film», «Эйвиси фильм Украина» по заказу ТРК «Украина».
Режиссер: Владимир Янощук
В ролях: Анна Михайловская, Александр Ратников, Анна Шепелева, Леонид Громов, Маргарита Шубина, Борис Хвошнянский, Николай Боклан, Анжелика Гирич, Виталий Салий, Сергей Малага, Людмила Кузьмина
О фильме: Беззаботное детство, родительская любовь, уютный дом – всего этого Александра Ермоленко (Анна Михайловская) лишается в один миг, когда ее родители неожиданно погибают в автомобильной аварии. Опеку над маленькой Сашей оформляют ее ближайшие родственники из села – родной дядя Николай (Леонид Громов) и его жена Катерина (Маргарита Шубина), которая надеется разбогатеть за счет наследства осиротевшей племянницы. Но ее плану не суждено было сбыться – банк вскоре отбирает все имущество Ермоленко в счет невыплаченных кредитов. Катерине и Николаю приходится вернуться обратно в село вместе с Сашей. Чтобы угодить вечно недовольной тетке, Александре приходится брать на себя самую тяжелую работу по хозяйству. Она мечтает вырваться из дома своих опекунов и поступить в художественный колледж. И однажды ей выпадает такой шанс, правда все происходит не так, как надеялась Саша....
Качество: HDTVRip-AVC
Видео: MPEG-4 AVC, ~ 2000 Кбит/с, 1024x576, 25 кадр/с
Аудио: AC3, 2 ch, 192 Кбит/с
Продолжительность: 16 х ~ 00:50:00
Перевод: Не требуется
Субтитры: нет

Скриншоты


MediaInfo

General
Unique ID : 208770517254925352516128961525298014993 (0x9D0FBD339A55963BA84C9A369FA4AB11)
Complete name : D:\Kapitansha.(2017).HDTVRip.(AVC).Files-x\01.Kapitansha.(2017).HDTVRip.AVC.by.Серый1779.Files-x.mkv
Format : Matroska
Format version : Version 2
File size : 787 MiB
Duration : 50 min 8 s
Overall bit rate : 2 193 kb/s
Encoded date : UTC 2017-05-16 03:12:20
Writing application : mkvmerge v7.8.0 ('River Man') 32bit built on Apr 3 2015 12:11:22
Writing library : libebml v1.3.1 + libmatroska v1.4.2
Video
ID : 1
Format : AVC
Format/Info : Advanced Video Codec
Format profile : High@L4.1
Format settings : CABAC / 9 Ref Frames
Format settings, CABAC : Yes
Format settings, RefFrames : 9 frames
Codec ID : V_MPEG4/ISO/AVC
Duration : 50 min 8 s
Bit rate : 2 000 kb/s
Width : 1 024 pixels
Height : 576 pixels
Display aspect ratio : 16:9
Frame rate mode : Constant
Frame rate : 25.000 FPS
Color space : YUV
Chroma subsampling : 4:2:0
Bit depth : 8 bits
Scan type : Progressive
Bits/(Pixel*Frame) : 0.136
Stream size : 702 MiB (89%)
Writing library : x264 core 146 r2538 121396c
Encoding settings : cabac=1 / ref=9 / deblock=1:-2:-1 / analyse=0x3:0x113 / me=umh / subme=9 / psy=1 / psy_rd=1.00:0.15 / mixed_ref=1 / me_range=32 / chroma_me=1 / trellis=2 / 8x8dct=1 / cqm=0 / deadzone=21,11 / fast_pskip=0 / chroma_qp_offset=-3 / threads=6 / lookahead_threads=1 / sliced_threads=0 / nr=0 / decimate=1 / interlaced=0 / bluray_compat=0 / constrained_intra=0 / bframes=9 / b_pyramid=2 / b_adapt=2 / b_bias=0 / direct=1 / weightb=1 / open_gop=0 / weightp=2 / keyint=250 / keyint_min=25 / scenecut=40 / intra_refresh=0 / rc_lookahead=50 / rc=2pass / mbtree=0 / bitrate=2000 / ratetol=1.0 / qcomp=0.60 / qpmin=0 / qpmax=69 / qpstep=4 / cplxblur=20.0 / qblur=0.5 / vbv_maxrate=14000 / vbv_bufsize=14000 / nal_hrd=none / filler=0 / ip_ratio=1.40 / pb_ratio=1.30 / aq=2:1.00
Default : Yes
Forced : No
Color range : Limited
Color primaries : BT.709
Transfer characteristics : BT.709
Matrix coefficients : BT.709
Audio
ID : 2
Format : AC-3
Format/Info : Audio Coding 3
Format settings, Endianness : Big
Codec ID : A_AC3
Duration : 50 min 8 s
Bit rate mode : Constant
Bit rate : 192 kb/s
Channel(s) : 2 channels
Channel positions : Front: L R
Sampling rate : 48.0 kHz
Frame rate : 31.250 FPS (1536 SPF)
Bit depth : 16 bits
Compression mode : Lossy
Stream size : 68.8 MiB (9%)
Service kind : Complete Main
Default : Yes
Forced : No
Релиз от:

Release was prepared by RG Files-x

[Profile] [PM]
Display posts:    
Reply to topic

Current time is: 29-May 16:49

All times are UTC + 3



You cannot post new topics in this forum
You cannot reply to topics in this forum
You cannot edit your posts in this forum
You cannot delete your posts in this forum
You cannot vote in polls in this forum
You cannot attach files in this forum
You cannot download files in this forum