Лови момент / Come se non ci fosse un domani (2019) WEB-DL 1080p | iTunes

Reply to topic
 
Author Message

Monk ®

Gender: Male

Longevity: 1 year 6 months

Posts: 12030

Location: Казань

Post 23-May-2020 03:50

[Quote]

Лови момент / Come se non ci fosse un domani Год выпуска: 2019
Жанр: Комедия
Выпущено: Италия, Adler Productions, Babbudoiu C., Firenze Produzioni Cinematografiche
Режиссер: Игор Биддау
В ролях: Франческо Мальком, Марина Казанкова, Росселла Брешия, Тим Дайш, Даниэле Монакелла, Бенито Ургу, Джованни Качоппо, Джанлука Импастато, Мария Челесте Селлитто, Гаэтано Дженнаи
О фильме: Все истории объединены единой темой: как это - жить моментом, не думая о завтрашнем дне. Тренер бейсбольной команды для людей с ограниченными возможностями сам решает притвориться инвалидом, чтобы завоевать сердце девушки. Астронавт, потерянный в космосе, решает в последнем сообщении на Землю поделиться ВСЕМ, что думает о близких. Человек, который ненавидит соцсети, выкидывает смартфон, но случайный прохожий снимает это - и тот превращается в героя соцсетей. И еще множество веселых историй, из которых героев будет не так-то просто выпутаться.
Качество: WEB-DL 1080p
Видео: MPEG-4 AVC, 4533 Кбит/с, 1920x804
Аудио: Русский (AC3, 6 ch, 384 Кбит/с)
Продолжительность: 01:30:31
Перевод: Профессиональный многоголосый [iTunes]

Скриншоты


MediaInfo

Video
ID : 1
Format : AVC
Format/Info : Advanced Video Codec
Format profile : High@L4
Format settings : CABAC / 5 Ref Frames
Format settings, CABAC : Yes
Format settings, Reference : 5 frames
Format settings, GOP : N=1
Codec ID : V_MPEG4/ISO/AVC
Duration : 1 h 30 min
Bit rate : 4 533 kb/s
Width : 1 920 pixels
Height : 804 pixels
Display aspect ratio : 2.40:1
Frame rate mode : Constant
Frame rate : 24.000 FPS
Color space : YUV
Chroma subsampling : 4:2:0
Bit depth : 8 bits
Scan type : Progressive
Bits/(Pixel*Frame) : 0.122
Stream size : 2.87 GiB (92%)
Title : LOVI_MOMENT_2019_WEB-DL_1080p-BLUEBIRD
Language : English
Default : Yes
Forced : No
Color range : Limited
Color primaries : BT.709
Transfer characteristics : BT.709
Matrix coefficients : BT.709
Audio
ID : 2
Format : AC-3
Format/Info : Audio Coding 3
Commercial name : Dolby Digital
Codec ID : A_AC3
Duration : 1 h 30 min
Bit rate mode : Constant
Bit rate : 384 kb/s
Channel(s) : 6 channels
Channel layout : L R C LFE Ls Rs
Sampling rate : 48.0 kHz
Frame rate : 31.250 FPS (1536 SPF)
Compression mode : Lossy
Delay relative to video : -42 ms
Stream size : 249 MiB (8%)
Title : [MVO] DD 5.1 @ 384 kbps (iTunes)
Language : Russian
Service kind : Complete Main
Default : Yes
Forced : No
Menu
00:00:00.000 : en:Глава 1
00:07:52.833 : en:Глава 2
00:16:33.458 : en:Глава 3
00:23:59.208 : en:Глава 4
00:31:30.708 : en:Глава 5
00:37:35.583 : en:Глава 6
00:46:00.833 : en:Глава 7
00:53:55.458 : en:Глава 8
01:00:18.374 : en:Глава 9
01:07:48.790 : en:Глава 10
01:14:55.248 : en:Глава 11
01:20:26.498 : en:Глава 12
[Profile] [PM]
Display posts:    
Reply to topic

Current time is: 29-May 17:42

All times are UTC + 3



You cannot post new topics in this forum
You cannot reply to topics in this forum
You cannot edit your posts in this forum
You cannot delete your posts in this forum
You cannot vote in polls in this forum
You cannot attach files in this forum
You cannot download files in this forum