Кокоша — маленький дракон: Приключения в джунглях / Der kleine Drache Kokosnuss - Auf in den Dschungel! (2019) WEB-DL 1080p | IVI

Reply to topic
 
Author Message

Monk ®

Gender: Male

Longevity: 1 year 10 months

Posts: 13109

Location: Казань

Post 28-Aug-2020 13:39

[Quote]

Кокоша — маленький дракон: Приключения в джунглях / Der kleine Drache Kokosnuss - Auf in den Dschungel! Год выпуска: 2019
Жанр: Мультфильм, фэнтези, комедия, приключения, семейный, полнометражный
Выпущено: Германия, Caligari Film- und Fernsehproduktions
Режиссер: Энтони Пауэр
В ролях: Макс фон дер Грёбен, Каролин Кебекус, Дастин Земмельрогге, Гудо Хегель, Ангелика Бендер
О фильме: Ура! Каникулы! Кокошу и его закадычного приятеля Оскара родители отправляют в летний лагерь для юных драконов и драконесс. Дикобразов туда не берут, поэтому друзья разрабатывают тайную спецоперацию по нелегальной отправке к месту отдыха их лучшей подружки, дикобразихи Матильды, без которой они никуда. Веселое и увлекательное путешествие неразлучной троицы очень быстро превратилось в опаснейшее приключение, потому что им повстречалось племя не самых гостеприимных Водяных Драконов, а джунгли просто кишели прожорливыми и очень голодными растениями…
Качество: WEB-DL 1080p
Видео: MPEG-4 AVC, 5120 Кбит/с, 1920x1080
Аудио: Русский (AC3, 6 ch, 384 Кбит/с)
Продолжительность: 01:16:29
Перевод: Дублированный [IVI]

Скриншоты


MediaInfo

Complete name : Kokosha.malenkiy.drakon.Priklyucheniya.v.dzhunglyah.2018.WEB-DL.1080p.ELEKTRI4KA.UNIONGANG.mkv
Format : Matroska
Format version : Version 4 / Version 2
File size : 2.94 GiB
Duration : 1 h 16 min
Overall bit rate : 5 502 kb/s
Movie name : .ELEKTRI4KA.UNIONGANG.
Encoded date : UTC 2020-07-26 13:09:34
Writing application : mkvmerge v8.3.0 ('Over the Horizon') 64bit
Writing library : libebml v1.3.1 + libmatroska v1.4.2
Video
ID : 1
Format : AVC
Format/Info : Advanced Video Codec
Format profile : High@L4
Format settings, CABAC : Yes
Format settings, Reference frames : 4 frames
Codec ID : V_MPEG4/ISO/AVC
Duration : 1 h 16 min
Bit rate : 5 120 kb/s
Width : 1 920 pixels
Height : 1 080 pixels
Display aspect ratio : 16:9
Frame rate mode : Constant
Frame rate : 25.000 FPS
Color space : YUV
Chroma subsampling : 4:2:0
Bit depth : 8 bits
Scan type : Progressive
Bits/(Pixel*Frame) : 0.099
Stream size : 2.73 GiB (93%)
Title : .ELEKTRI4KA.UNIONGANG.
Writing library : x264 core 148
Encoding settings : cabac=1 / ref=3 / deblock=1:0:0 / analyse=0x3:0x113 / me=hex / subme=7 / psy=1 / psy_rd=1.00:0.00 / mixed_ref=1 / me_range=16 / chroma_me=1 / trellis=1 / 8x8dct=1 / cqm=0 / deadzone=21,11 / fast_pskip=1 / chroma_qp_offset=-2 / threads=34 / lookahead_threads=5 / sliced_threads=0 / nr=0 / decimate=1 / interlaced=0 / bluray_compat=0 / constrained_intra=0 / bframes=6 / b_pyramid=2 / b_adapt=1 / b_bias=0 / direct=1 / weightb=1 / open_gop=0 / weightp=2 / keyint=50 / keyint_min=26 / scenecut=0 / intra_refresh=0 / rc_lookahead=40 / rc=2pass / mbtree=1 / bitrate=5120 / ratetol=1.0 / qcomp=0.60 / qpmin=0 / qpmax=69 / qpstep=4 / cplxblur=20.0 / qblur=0.5 / vbv_maxrate=7680 / vbv_bufsize=20480 / nal_hrd=none / filler=0 / ip_ratio=1.40 / aq=1:1.00
Default : Yes
Forced : No
Audio
ID : 2
Format : AC-3
Format/Info : Audio Coding 3
Mode extension : CM (complete main)
Format settings, Endianness : Big
Codec ID : A_AC3
Duration : 1 h 16 min
Bit rate mode : Constant
Bit rate : 384 kb/s
Channel(s) : 6 channels
Channel positions : Front: L C R, Side: L R, LFE
Sampling rate : 48.0 kHz
Frame rate : 31.250 FPS (1536 spf)
Bit depth : 16 bits
Compression mode : Lossy
Stream size : 210 MiB (7%)
Title : IVI
Language : Russian
Default : Yes
Forced : No
[Profile] [PM]
Display posts:    
Reply to topic

Current time is: 29-Sep 13:34

All times are UTC + 3



You cannot post new topics in this forum
You cannot reply to topics in this forum
You cannot edit your posts in this forum
You cannot delete your posts in this forum
You cannot vote in polls in this forum
You cannot attach files in this forum
You cannot download files in this forum