Человек и закон [эфир 04.09] (2020) SATRip от GeneralFilm

Reply to topic
 
Author Message

Starik60 ®

Gender: Male

Longevity: 1 year 10 months

Posts: 279

Location: Москва, Россия

Post 04-Sep-2020 11:23

[Quote]

Человек и закон
Год выпуска: 2020
Жанр: Документальный, расследование
Выпущено: Россия, Телекомпания "Останкино"
Режиссер: Денис Пиманов
Ведущий: Алексей Пиманов
О фильме: Общественно-политическая программа "Человек и закон" выходит на главном телеканале страны уже 35 лет (Алексей Пиманов ведет программу с 1996 года). Столь "преклонный возраст" ничуть не мешает программе оставаться одной из самых востребованных и актуальных на отечественном телевидении. Быть может потому, что основные темы - борьба с организованной преступностью, расследования о коррупции в высших эшелонах власти, криминальные истории…
Официальный сайт
Качество: SATRip
Видео: XviD, 1600 Кбит/с, 720x400
Аудио: AC3, 2 ch, 192 Кбит/с
Продолжительность: 01:03:00
Перевод: Не требуется

Скриншоты



MediaInfo


General
Complete name : G:\Temp\Человек и закон 15.05.2020.GeneralFilm.avi
Format : AVI
Format/Info : Audio Video Interleave
File size : 632 MiB
Duration : 49 min 3 s
Overall bit rate : 1 802 kb/s
Writing application : VirtualDubMod 1.5.10.3 | www.virtualdub-fr.org || (build 2550/release)
Writing library : VirtualDubMod build 2550/release
Video
ID : 0
Format : MPEG-4 Visual
Format profile : Advanced Simple@L5
Format settings : BVOP1 / Custom Matrix
Format settings, BVOP : 1
Format settings, QPel : No
Format settings, GMC : No warppoints
Format settings, Matrix : Custom
Codec ID : XVID
Codec ID/Hint : XviD
Duration : 49 min 3 s
Bit rate : 1 600 kb/s
Width : 720 pixels
Height : 400 pixels
Display aspect ratio : 16:9
Frame rate : 25.000 FPS
Color space : YUV
Chroma subsampling : 4:2:0
Bit depth : 8 bits
Scan type : Progressive
Compression mode : Lossy
Bits/(Pixel*Frame) : 0.222
Stream size : 561 MiB (89%)
Writing library : XviD 73
Audio
ID : 1
Format : AC-3
Format/Info : Audio Coding 3
Commercial name : Dolby Digital
Codec ID : 2000
Duration : 49 min 3 s
Bit rate mode : Constant
Bit rate : 192 kb/s
Channel(s) : 2 channels
Channel layout : L R
Sampling rate : 48.0 kHz
Frame rate : 31.250 FPS (1536 SPF)
Bit depth : 16 bits
Compression mode : Lossy
Stream size : 67.4 MiB (11%)
Alignment : Split accross interleaves
Interleave, duration : 40 ms (1.00 video frame)
Interleave, preload duratio : 500 ms
Service kind : Complete Main

Содержание


Процесс по делу о ДТП актера Михаила Ефремова на финишной прямой. 3 сентября прошли прения сторон. Гособвинитель запросил 11 лет лишения свободы. Приговор огласят 8 сентября. Репортаж с места событий, из Пресненского суда Москвы.
Политический дайджест недели. Протесты в Болгарии, митинги в Белоруссии, погромы в Соединенных Штатах. Экологи в Великобритании, студенты в Тайланде, недовольные в Германии. Люди планеты, будто сговорившись, вышли на улицы.
- В США разгул преступности. Война двух партий перед президентскими выборами 3 ноября. Демократы против республиканцев. Джо Байден против Дональда Трампа.
История 17-летнего Кайла Риттенхауса, которого называют символом «белого пробуждения».
- Белоруссия. Хроники недели. Раскол в стане оппозиции (свергать Лукашенко и переписывать Конституцию, оказывается, разные вещи). Те, кто на улицах, утопически мечтают превратить страну в новую Швейцарию. Поиск путей стабилизации обстановки. Лукашенко пошел в народ и поехал на заводы.
- Недовльная всем и вся Польша как «главная жертва Второй Мировой войны». Фантомные боли и ненависть к России. По любому поводу.
- А Берлин вовсю митингует из-за коронавируса и ограничения свобод.
- Новый виток угроз со стороны США в отношении «Северного потока-2» и участников строительства газопровода.
- Во Франции скандально-известный журнал «Шарли Эбдо» снова напечатал непристойные карикатуры на пророка Мухаммеда. Те же, что и в 2015 году, из-за которых террористы ворвались в редакцию и расстреляли 12 человек. Это приурочено к началу судебного процесса над экстремистами.
Невинноосужденный. Поди теперь и докажи, что ты не верблюд. Отличник погранслужбы, ветеран боевых действий на Северном Кавказе Денис Чигилейчик 5 лет назад купил в подмосковной Балашихе квартиру. Бытовой конфликт с соседом по лестничной клетке перерос в противостояние не на жизнь, а на смерть. Сосед написал заявление в полицию. Мол, майор-пограничник его избил. Да так, что тот ослеп. Вопреки логике и здравому смыслу Дениса осудили на 2,5 года за якобы причинение тяжкого вреда здоровью. Программа отправилась разбираться.
Культурная революция. Потомок Агаты Кристи решил переименовать мировой бестселлер «10 негритят» максимально нейтрально — «Их было 10». Берлинский международный кинофестиваль объявил о новых правилах: равное представительство в конкурсе картин женщин-режиссеров, отмена деления номинаций на «лучшую женскую/мужскую роль». В Швейцарии сняли с продажи пирожное с вековой историей «голова мавра». В Нидерландах решили убрать из официальных документов графу «пол» — кому нужна лишняя информация? И далее по списку. Что ждать Homo sapience от новой реальности. Наше расследование.
Релиз от:
[Profile] [PM]
Display posts:    
Reply to topic

Current time is: 29-Sep 14:21

All times are UTC + 3



You cannot post new topics in this forum
You cannot reply to topics in this forum
You cannot edit your posts in this forum
You cannot delete your posts in this forum
You cannot vote in polls in this forum
You cannot attach files in this forum
You cannot download files in this forum