Наказание без преступления [1-2 серии из 2] (2019) WEBRip от Files-х

Reply to topic
 
Author Message

papa1951deda ®

Gender: Male

Longevity: 1 year 10 months

Posts: 706

Location: Казахстан

Post 15-Sep-2020 05:44

[Quote]

Наказание без преступления Год выпуска: 2019
Жанр: Мелодрама
Выпущено: Россия, Производство ООО «Паламеда Продакшн», Кинокомпания «Фабула Продакшн»
Режиссер: Элина Суни
В ролях: Алла Юганова, Сергей Горобченко, Сергей Зотов, Тамара Миронова, Вера Александрова (II), Сергей Иванюк, Наталья Гриншпун, Анатолий Борискевич, Иван Жуковский, Елена Барсукова
О фильме: Наталья в свои тридцать пять всё еще мечтает встретить принца. Однажды ночью на улице её от агрессивного пьяного мужчины спасает финский бизнесмен Ларс. Любовь между ними вспыхивает мгновенно, и вскоре Наталья выходит за Ларса замуж. У них рождается сын Миша, но брак не приносит счастья - долгожданный принц оказывается игроманом. В очередной раз сильно проигравшись, Ларс с помощью сына решает убить свою тётю и стать наследником ее огромного состояния. Он подстраивает жене ловушку, похищает Мишу и вывозит его в Финляндию. Наталья теряет права на сына и остается одна. На помощь ей ​​неожиданно приходит тот самый мужчина с улицы.

Качество: WEBRip
Видео: XviD, ~ 1600 Кбит/с, 720x400, 25 кадр/с
Аудио: AC3, 2 ch, 192 Кбит/с
Продолжительность: 2 x ~ 01:32:00
Перевод: Не требуется
Cубтитры: нет

Скриншоты


MediaInfo

General
Complete name : D:\моё видио\Наказание без преступления.2020.WEB-DLRip.Files-x\01. Наказание без преступления.2020.WEB-DLRip.Files-x.avi
Format : AVI
Format/Info : Audio Video Interleave
File size : 1.16 GiB
Duration : 1h 32mn
Overall bit rate : 1 802 Kbps
Writing application : VirtualDubMod 1.5.10.3 | www.virtualdub-fr.org || (build 2550/release)
Writing library : VirtualDubMod build 2550/release
Video
ID : 0
Format : MPEG-4 Visual
Format profile : Advanced Simple@L5
Format settings, BVOP : 1
Format settings, QPel : No
Format settings, GMC : No warppoints
Format settings, Matrix : Custom
Codec ID : XVID
Codec ID/Hint : XviD
Duration : 1h 32mn
Bit rate : 1 529 Kbps
Width : 720 pixels
Height : 400 pixels
Display aspect ratio : 16:9
Frame rate : 25.000 fps
Color space : YUV
Chroma subsampling : 4:2:0
Bit depth : 8 bits
Scan type : Progressive
Compression mode : Lossy
Bits/(Pixel*Frame) : 0.212
Stream size : 1 010 MiB (85%)
Writing library : XviD 73
Audio
ID : 1
Format : AC-3
Format/Info : Audio Coding 3
Mode extension : CM (complete main)
Format settings, Endianness : Big
Codec ID : 2000
Duration : 1h 32mn
Bit rate mode : Constant
Bit rate : 192 Kbps
Channel(s) : 2 channels
Channel positions : Front: L R
Sampling rate : 48.0 KHz
Bit depth : 16 bits
Compression mode : Lossy
Stream size : 127 MiB (11%)
Alignment : Split accross interleaves
Релиз от:

Release was prepared by RG Files-x

[Profile] [PM]
Display posts:    
Reply to topic

Current time is: 30-Sep 03:54

All times are UTC + 3



You cannot post new topics in this forum
You cannot reply to topics in this forum
You cannot edit your posts in this forum
You cannot delete your posts in this forum
You cannot vote in polls in this forum
You cannot attach files in this forum
You cannot download files in this forum