Золото Геленджика [1-3 выпуск из ??] (2020) WEBRip 720 от Files-x

Reply to topic
 
Author Message

papa1951deda ®

Gender: Male

Longevity: 1 year 10 months

Posts: 704

Location: Казахстан

Post 15-Sep-2020 06:30

[Quote]

Золото Геленджика Год выпуска: 2020
Жанр: Ток-шоу
Выпущено: Россия, ТНТ
Ведущий: Иван Охлобыстин, Тимур Родригез, Кристина Асмус
О фильме: «Золото Геленджика» - это и эстафета, наполненная самыми невероятными препятствиями, и легкоатлетические соревнования по несуществующим видам спорта, в которых каждый сможет установить свой собственный мировой рекорд, ну или как минимум широко улыбнуться в камеру, угодив в очередную коварную ловушку. На просторах гигантского тематического парка, возведенного за рекордные 1, 5 месяца, участников ждут самые сумасшедшие испытания, преодолев которые они смогут приблизиться к призу. Но главный ведущий и распорядитель Иван Охлобыстин так просто со своим золотом расставаться не собирается.
Качество: WEBRip 720
Видео: MPEG-4 AVC, ~ 3000 Кбит/с, 1280x720, 25 кадр/с
Аудио: AC3, 2 ch, 192 Кбит/с
Продолжительность: 3 x ~ 00:44:00
Перевод: Не требуется [Русский]
Cубтитры: нет

Скриншоты


MediaInfo

General
Unique ID: 181587939593249275593454266006729465103 (0x889C90A679DA1F74885102E962291D0F)
Complete name: H:\шоу\Золото Геленджика .2020. WEB-DL 720p. Files-x\01. Золото Геленджика .2020. WEB-DL 720p. Files-x!.mkv
Format: Matroska
File size: 998 MiB
Duration: 43mn 44s
Overall bit rate: 3 189 Kbps
Encoded date: UTC 2020-09-14 00:49:08
Writing application: mkvmerge v7.8.0 ('River Man') 32bit built on Apr 3 2015 12:11:22
Writing library: libebml v1.3.1 + libmatroska v1.4.2
Video
ID: 1
Format: AVC
Format/Info: Advanced Video Codec
Format profile: High@L3.1
Format settings, CABAC: Yes
Format settings, ReFrames: 1 frame
Codec ID: V_MPEG4/ISO/AVC
Duration: 43mn 44s
Bit rate mode: Variable
Bit rate: 2 934 Kbps
Maximum bit rate: 3 000 Kbps
Width: 1 280 pixels
Height: 720 pixels
Display aspect ratio: 16:9
Frame rate: 25.000 fps
Color space: YUV
Chroma subsampling: 4:2:0
Bit depth: 8 bits
Scan type: Progressive
Bits/(Pixel*Frame): 0.127
Stream size: 918 MiB (92%)
Audio
ID: 2
Format: AC-3
Format/Info: Audio Coding 3
Mode extension: CM (complete main)
Codec ID: A_AC3
Duration: 43mn 44s
Bit rate mode: Constant
Bit rate: 192 Kbps
Channel(s): 2 channels
Channel positions: Front: L R
Sampling rate: 44.1 KHz
Bit depth: 16 bits
Compression mode: Lossy
Delay relative to video: 9ms
Stream size: 60.1 MiB (6%)

Внимание! Раздача ведётся путём добавления новых серий

Раздача ведётся путём добавления новых серий, при каждом добавлении создаётся новый торрент. Чтобы начать докачку новой серии, пользователям необходимо сделать следующее:
- Остановить скачивание.
- Удалить старый торрент у себя из клиента (старые серии удалять не надо).
- Скачать новый торрент и запустить его у себя в клиенте вместо старого, при этом указать клиенту путь в старую папку куда и должно происходить скачивание новых серий.
Ваш клиент при этом должен произвести хеширование (проверку) старой папки (если не производит сам - помогите ему сделать это), и будет докачивать только те серии которых у вас ещё нет. Старые серии при этом не удаляются, а продолжают раздаваться!
Релиз:

Release was prepared by RG Files-x



Last edited by papa1951deda on Yesterday 13:24; edited 1 time in total
[Profile] [PM]

Post 15-Sep-2020 06:36 (after 6 minutes)

Топик был перенесен из форума Русскоязычные фильмы от RG Files-x в форум Тв-шоу
bond74
 

Post 15-Sep-2020 06:38 (after 7 minutes)

Топик был перенесен из форума Тв-шоу в форум ТВ-шоу от RG Files-x
bond74
 
Display posts:    
Reply to topic

Current time is: 29-Sep 13:02

All times are UTC + 3



You cannot post new topics in this forum
You cannot reply to topics in this forum
You cannot edit your posts in this forum
You cannot delete your posts in this forum
You cannot vote in polls in this forum
You cannot attach files in this forum
You cannot download files in this forum