Американский огурчик / An American Pickle (2020) WEBRip AVC | NewComers

Reply to topic
 
Author Message

Monk ®

Gender: Male

Longevity: 1 year 10 months

Posts: 13179

Location: Казань

Post 16-Sep-2020 10:57

[Quote]

Американский огурчик / An American Pickle Год выпуска: 2020
Жанр: Комедия
Выпущено: США, Point Grey Pictures, Gravitational Productions, Sony Pictures Entertainment
Режиссер: Брэндон Трост
В ролях: Сет Роген, Сара Снук, Шон Уэйлен, Йорма Такконе, Джоэнна Адлер, Марша Стефани Блэйк, Джеффри Дэниэл Филлипс, Дэвид Мэтти, Джеффри Кантор, Чарльз Роджерс
О фильме: Иммигрант из Восточной Европы Гершель Гринбаум в 1920 году приезжает в Америку в поисках лучшей жизни для себя и своей семьи. Однажды, работая на заводе, он падает в чан с солёными огурцами и проводит в нём следующие 100 лет. Очнувшись в Бруклине, Гринбаум обнаруживает, что совсем не постарел. Он ищет свою семью и узнаёт, что единственный из его живых родственников — правнук-программист.
Качество: WEBRip AVC
Видео: MPEG-4 AVC, 2097 Кбит/с, 1024x560
Аудио: Русский (AC3, 6 ch, 448 Кбит/с), английский (AC3, 6 ch, 384 Кбит/с)
Продолжительность: 01:28:26
Перевод: Профессиональный многоголосый [NewComers]

Скриншоты


MediaInfo

Общая информация
Уникальный идентификатор : 253206087467072920575848743008172826186 (0xBE7DB7F5DE30E1D1AEDE154A2C58DE4a)
Полное имя : D:\Amerikanskiy огурчик.2020.WEBRip (AVC).мкВ
Формат : Матроска
Версия формата : версия 4
Размер файла: 1.81 GiB
Продолжительность : 1 час 28 минут
Общая скорость передачи данных : 2 929 кб/с
Дата кодирования: UTC 2020-08-10 18:33:10
Написание приложения: mkvmerge v8. 3. 0 ("за горизонтом") 64bit
Библиотека записи: libebml v1. 3. 1 + libmatroska v1. 4. 2
Видео
ID : 1
Формат: AVC
Формат / Информация: Расширенный Видеокодек
Формат профиля : High@L4.1
Настройки формата: CABAC / 11 Ref кадров
Настройки формата, CABAC : да
Настройки формата, Ссылка: 11 кадров
Кодек ID: V_MPEG4 / ISO / AVC
Продолжительность : 1 час 28 минут
Скорость передачи данных : 2 097 кб/с
Ширина : 1 024 пикселя
Высота : 560 пикселей
Соотношение сторон дисплея: 1.85:1
Режим частоты кадров : постоянный
Частота кадров : 23.976 (24000/1001) кадров в секунду
Цветовое пространство : YUV
Субсэмплинг цветности : 4:2: 0
Разрядность: 8 бит
Тип сканирования: прогрессивный
Бит/(Пиксель * Кадр): 0,153
Размер потока : 1.29 GiB (72%)
Библиотека записи : x264 core 148 r2638 7599210
Настройки кодирования : cabac=1 / ref=11 / deblock=1:2:2 / analyse=0x3:0x113 / me=umh / subme=10 / psy=1 / psy_rd=1.00:0.20 / mixed_ref=1 / me_range=48 / chroma_me=1 / trellis=2 / 8x8dct=1 / cqm=0 / deadzone=21,11 / fast_pskip=1 / chroma_qp_offset=-1 / threads=6 / lookahead_threads=1 / sliced_threads=0 / NR=0 / Decimate=1 / interlaced=0 / bluray_compat=0 / constrained_intra=0 / bframes=3 / b_pyramid=2 / b_adapt=2 / b_bias=0 / direct=3 / weightb=1 / open_gop=0 / weightp=2 / keyint=240 / keyint_min=23 / scenecut=40 / intra_refresh=0 / rc_lookahead=40 / RC=2pass / mbtree=1 / битрейт=2097 / ratetol=1.0 / qcomp=0.60 / qpmin=0 / qpmax=69 / qpstep=4 / cplxblur=20.0 / qblur=0.5 / vbv_maxrate=50000 / vbv_bufsize=62500 / nal_hrd=none / filler=0 / ip_ratio=1.40 / aq=1:1.00
По Умолчанию: Да
Принудительно : Нет
Аудио #1
ID : 2
Формат: AC-3
Формат / Информация: Аудио Кодирование 3
Коммерческое название: Dolby Digital
Кодек ID: A_AC3
Продолжительность : 1 час 28 минут
Режим битовой скорости : постоянный
Скорость передачи данных : 448 кб/с
Канал(ы) : 6 каналов
Схема канала : L R C LFE Ls Rs
Частота дискретизации : 48,0 кГц
Частота кадров : 31.250 кадров в секунду (1536 SPF)
Режим сжатия : с потерями
Размер потока: 283 MiB (15%)
Название: МВО [ новички]
Язык : Русский
Вид обслуживания : полный основной
По Умолчанию: Да
Принудительно : Нет
Аудио #2
ID : 3
Формат: AC-3
Формат / Информация: Аудио Кодирование 3
Коммерческое название: Dolby Digital
Кодек ID: A_AC3
Продолжительность : 1 час 28 минут
Режим битовой скорости : постоянный
Скорость передачи данных: 384 кб/с
Канал(ы) : 6 каналов
Схема канала : L R C LFE Ls Rs
Частота дискретизации : 48,0 кГц
Частота кадров : 31.250 кадров в секунду (1536 SPF)
Режим сжатия : с потерями
Размер потока: 243 MiB (13%)
Язык: Английский
Вид обслуживания : полный основной
По Умолчанию: Нет
Принудительно : Нет
[Profile] [PM]
Display posts:    
Reply to topic

Current time is: 30-Sep 21:18

All times are UTC + 3



You cannot post new topics in this forum
You cannot reply to topics in this forum
You cannot edit your posts in this forum
You cannot delete your posts in this forum
You cannot vote in polls in this forum
You cannot attach files in this forum
You cannot download files in this forum