Лучший пёс [1 сезон: 1-6 выпуски] (2020) WEBRip от Files-x

Reply to topic
 
Author Message

papa1951deda ®

Gender: Male

Longevity: 1 year 11 months

Posts: 749

Location: Казахстан

Post 19-Sep-2020 18:11

[Quote]

Лучший пёс Год выпуска: 2020
Жанр: Ток-шоу
Выпущено: Россия, тв-3
Ведущие: Ирена Понарошку
О фильме: «Лучший пес» – это шоу про любовь, которая не знает фальши, и отношения, способные справиться с любой полосой препятствий. Шоу стартует уже сегодня, 19 сентября, на ТВ-3. Нельзя сказать, что на отечественном телевидении жанр дог-шоу очень популярен. Однако собак любят, возможно, не все, но очень много людей. Их искренняя любовь и преданность не могут не подкупать, ведь на протяжении многих сотен лет именно собака – соратник человека и развивается вместе с ним. «Лучший пес» – большая, веселая и согревающая сердце премьера канала ТВ-3. Студийное шоу, в котором четыре команды в составе собаки и ее хозяина участвуют в трех конкурсах на выбывание и борются за победу, демонстрируя, как хорошо они знают и понимают друг друга. Победители получат кубок чемпиона, тортик для собаки и другие практичные призы и приятные подарки.
Качество: WEBRip
Видео: XviD, ~ 1600 Кбит/с, 720x400, 25 кадр/с
Аудио: AC3, 2 ch, 192 Кбит/с
Продолжительность: 6 х ~ 00:40:00
Перевод: Не требуется [Русский]
Cубтитры: нет

Скриншоты


MediaInfo

General
Complete name: H:\шоу\Лучший пёс.2020.WEB-DLRip.Files-x\01. Лучший пёс.2020.WEB-DLRip.Files-x.avi
Format: AVI
Format/Info: Audio Video Interleave
File size: 517 MiB
Duration: 40mn 8s
Overall bit rate: 1 800 Kbps
Writing application: VirtualDubMod 1.5.10.3 | www.virtualdub-fr.org || (build 2550/release)
Writing library: VirtualDubMod build 2550/release
Video
ID: 0
Format: MPEG-4 Visual
Format profile: Advanced Simple@L5
Format settings, BVOP: 2
Format settings, QPel: No
Format settings, GMC: No warppoints
Format settings, Matrix: Custom
Codec ID: XVID
Codec ID/Hint: XviD
Duration: 40mn 8s
Bit rate: 1 598 Kbps
Width: 720 pixels
Height: 400 pixels
Display aspect ratio: 16:9
Frame rate: 25.000 fps
Color space: YUV
Chroma subsampling: 4:2:0
Bit depth: 8 bits
Scan type: Progressive
Compression mode: Lossy
Bits/(Pixel*Frame): 0.222
Stream size: 459 MiB (89%)
Writing library: XviD 73
Audio
ID: 1
Format: AC-3
Format/Info: Audio Coding 3
Mode extension: CM (complete main)
Codec ID: 2000
Duration: 40mn 8s
Bit rate mode: Constant
Bit rate: 192 Kbps
Channel(s): 2 channels
Channel positions: Front: L R
Sampling rate: 48.0 KHz
Bit depth: 16 bits
Compression mode: Lossy
Stream size: 55.1 MiB (11%)
Alignment: Split accross interleaves
Interleave, duration: 40 ms (1.00 video frame)
Interleave, preload duration: 500 ms

Внимание! Раздача ведётся путём добавления новых серий

Раздача ведётся путём добавления новых серий, при каждом добавлении создаётся новый торрент. Чтобы начать докачку новой серии, пользователям необходимо сделать следующее:
- Остановить скачивание.
- Удалить старый торрент у себя из клиента (старые серии удалять не надо).
- Скачать новый торрент и запустить его у себя в клиенте вместо старого, при этом указать клиенту путь в старую папку куда и должно происходить скачивание новых серий.
Ваш клиент при этом должен произвести хеширование (проверку) старой папки (если не производит сам - помогите ему сделать это), и будет докачивать только те серии которых у вас ещё нет. Старые серии при этом не удаляются, а продолжают раздаваться!
Релиз от:

Release was prepared by RG Files-x

[Profile] [PM]
Display posts:    
Reply to topic

Current time is: 24-Oct 23:53

All times are UTC + 3



You cannot post new topics in this forum
You cannot reply to topics in this forum
You cannot edit your posts in this forum
You cannot delete your posts in this forum
You cannot vote in polls in this forum
You cannot attach files in this forum
You cannot download files in this forum