Смотри как я (2020) WEB-DLRip от GeneralFilm | iTunes

Reply to topic
 
Author Message

vsobbol ®

Gender: Male

Longevity: 1 year 11 months

Posts: 731

Location: Донецк

Post 26-Sep-2020 19:25

[Quote]

Смотри как я
Год выпуска: 2020
Жанр: Комедия
Выпущено: Россия, «Грамани Фильм»
Режиссер: Егор Сальников
В ролях: Ольга Турчак, Михаил Мещеряков, Александр Самойленко, Дмитрий Мухамадеев, Елена Бирюкова, Евгений Сытый, Сергей Аброскин, Наталья Щукина, Мария Иващенко, Ярослав Жалнин
О фильме: Оля – безбашенная девчонка, сбежавшая из детдома. Максим – слепой парень, уставший от причуд богатого отца. Случайно встретившись, ребята решают бросить все и уехать на море. Почему бы и нет — у Максима папины деньги, у Оли сумасшедшая тяга к приключениям. Они молоды и хотят свободы, вот только видят ее каждый по-своему. Но от этого путешествие становится только ярче и увлекательнее!

Качество: WEB-DLRip
Видео: XviD build 69, 720x304 (2.35:1), 24.000 fps, 926 Kbps (~ 0.176 bit/pixel)
Аудио: 48.0 kHz, MP3, 2/0 ch, 192 kbps
Продолжительность: 01:32:30
Перевод: Не требуется [Русский]
Cубтитры: нет

Скриншоты

MediaInfo

General
Complete name : D:\Razdachi\Smotri.Kak.Ja.2020.WEB-DLRip.GeneralFilm.avi
Format : AVI
Format/Info : Audio Video Interleave
File size : 746 MiB
Duration : 1 h 32 min
Overall bit rate : 1 127 kb/s
Writing application : VirtualDubMod 1.5.10.3 | www.virtualdub-fr.org || (build 2550/release)
Writing library : VirtualDubMod build 2550/release
Video
ID : 0
Format : MPEG-4 Visual
Format profile : Advanced Simple@L5
Format settings : BVOP1 / Custom Matrix
Format settings, BVOP : 1
Format settings, QPel : No
Format settings, GMC : No warppoints
Format settings, Matrix : Custom
Codec ID : XVID
Codec ID/Hint : XviD
Duration : 1 h 32 min
Bit rate : 926 kb/s
Width : 720 pixels
Height : 304 pixels
Display aspect ratio : 2.35:1
Frame rate : 24.000 FPS
Color space : YUV
Chroma subsampling : 4:2:0
Bit depth : 8 bits
Scan type : Progressive
Compression mode : Lossy
Bits/(Pixel*Frame) : 0.176
Stream size : 612 MiB (82%)
Writing library : XviD 69
Audio
ID : 1
Format : MPEG Audio
Format version : Version 1
Format profile : Layer 3
Codec ID : 55
Codec ID/Hint : MP3
Duration : 1 h 32 min
Bit rate mode : Constant
Bit rate : 192 kb/s
Channel(s) : 2 channels
Sampling rate : 48.0 kHz
Frame rate : 41.667 FPS (1152 SPF)
Compression mode : Lossy
Stream size : 127 MiB (17%)
Alignment : Aligned on interleaves
Interleave, duration : 42 ms (1.00 video frame)
Interleave, preload duratio : 504 ms
Writing library : LAME3.99r
Encoding settings : -m s -V 4 -q 2 -lowpass 18.6 -b 192
Релиз от:
[Profile] [PM]
Display posts:    
Reply to topic

Current time is: 24-Oct 23:08

All times are UTC + 3



You cannot post new topics in this forum
You cannot reply to topics in this forum
You cannot edit your posts in this forum
You cannot delete your posts in this forum
You cannot vote in polls in this forum
You cannot attach files in this forum
You cannot download files in this forum