Руководство для нянь: Как поймать монстра / A Babysitter's Guide to Monster Hunting (2020) WEB-DL 1080p | Невафильм

Reply to topic
 
Author Message

Monk ®

Gender: Male

Longevity: 1 year 11 months

Posts: 13723

Location: Казань

Post 16-Oct-2020 10:43

[Quote]

Руководство для нянь: Как поймать монстра / A Babysitter's Guide to Monster Hunting Год выпуска: 2020
Жанр: Фэнтези, комедия, семейный
Выпущено: США, Netflix, The Montecito Picture Company, Walden Media
Режиссер: Рейчел Тэлалей
В ролях: Том Фелтон, Индия Мур, Уна Лоуренс, Тамара Смарт, Камерон Бэнкрофт, Момона Тамада, Кристал Балинт, Элиза Фариа, Трой Ли-Энн Джонсон, Иэн Хо, Тай Консильо, Аниса Харрис, Алессио Скальцотто, Саманта Шиммер, Линден Порко
О фильме: Первокурсница средней школы Келли Фергюсон неохотно соглашается присмотреть за мальчиком Джейкобом Зеллманом на Хэллоуин. Последнее, чего она ожидает - это быть завербованным в международное тайное общество нянек, которые защищают детей от монстров.
Качество: WEB-DL 1080p
Видео: MPEG-4 AVC, 3320 Kбит/с, 1920x1080
Аудио: Русский (AC3, 6 ch, 448 Кбит/с), aнглийский (E-AC3 JOC, 6 ch, 768 Кбит/с)
Продолжительность: 01:38:51
Перевод: Дублированный [Невафильм]
Субтитры: Русские, английские, испанские, французские, немецкие, итальянские, португальские

Скриншоты



MediaInfo

Источник: A.Babysitters.Guide.to.Monster.Hunting.2020.1080p.NF.WEB-DL.DDP5.1.Atmos.x264-MZABI
General
Unique ID : 236232054990216860347907152665493003250 (0xB1B8A38BDE6C19C4A21A6C094DCE5BF2)
Complete name : A.Babysitters.Guide.to.Monster.Hunting.2020.NF.WEB-DL.1080p.mkv
Format : Matroska
Format version : Version 4
File size : 3.06 GiB
Duration : 1 h 38 min
Overall bit rate mode : Variable
Overall bit rate : 4 435 kb/s
Encoded date : UTC 2020-10-15 19:24:07
Writing application : mkvmerge v7.1.0 ('Good Love') 64bit built on Jul 27 2014 13:06:55
Writing library : libebml v1.3.0 + libmatroska v1.4.1
Video
ID : 1
Format : AVC
Format/Info : Advanced Video Codec
Format profile : Main@L4
Format settings : CABAC / 3 Ref Frames
Format settings, CABAC : Yes
Format settings, Reference fra : 3 frames
Codec ID : V_MPEG4/ISO/AVC
Duration : 1 h 38 min
Bit rate mode : Variable
Bit rate : 3 320 kb/s
Maximum bit rate : 4 980 kb/s
Width : 1 920 pixels
Height : 1 080 pixels
Display aspect ratio : 16:9
Frame rate mode : Constant
Frame rate : 24.000 FPS
Color space : YUV
Chroma subsampling : 4:2:0
Bit depth : 8 bits
Scan type : Progressive
Bits/(Pixel*Frame) : 0.067
Stream size : 2.22 GiB (73%)
Writing library : x264 core 148 r2722 1b0121b
Encoding settings : cabac=1 / ref=3 / deblock=1:0:0 / analyse=0x1:0x111 / me=umh / subme=10 / psy=1 / psy_rd=1.00:0.00 / mixed_ref=1 / me_range=24 / chroma_me=1 / trellis=2 / 8x8dct=0 / cqm=0 / deadzone=21,11 / fast_pskip=1 / chroma_qp_offset=-2 / threads=8 / lookahead_threads=1 / sliced_threads=0 / nr=0 / decimate=1 / interlaced=0 / bluray_compat=0 / stitchable=1 / constrained_intra=0 / bframes=2 / b_pyramid=0 / b_adapt=2 / b_bias=0 / direct=3 / weightb=1 / open_gop=0 / weightp=2 / keyint=250 / keyint_min=24 / scenecut=0 / intra_refresh=0 / rc_lookahead=48 / rc=2pass / mbtree=1 / bitrate=3320 / ratetol=1.0 / qcomp=0.50 / qpmin=6 / qpmax=51 / qpstep=4 / cplxblur=20.0 / qblur=0.5 / vbv_maxrate=4980 / vbv_bufsize=6640 / nal_hrd=vbr / filler=0 / ip_ratio=1.40 / aq=1:1.00
Language : English
Default : Yes
Forced : No
Audio #1
ID : 2
Format : AC-3
Format/Info : Audio Coding 3
Commercial name : Dolby Digital
Codec ID : A_AC3
Duration : 1 h 38 min
Bit rate mode : Constant
Bit rate : 448 kb/s
Channel(s) : 6 channels
Channel layout : L R C LFE Ls Rs
Sampling rate : 48.0 kHz
Frame rate : 31.250 FPS (1536 SPF)
Compression mode : Lossy
Stream size : 317 MiB (10%)
Title : DUB | Невафильм
Language : Russian
Service kind : Complete Main
Default : Yes
Forced : No
Audio #2
ID : 3
Format : E-AC-3 JOC
Format/Info : Enhanced AC-3 with Joint Object Coding
Commercial name : Dolby Digital Plus with Dolby Atmos
Codec ID : A_EAC3
Duration : 1 h 38 min
Bit rate mode : Constant
Bit rate : 768 kb/s
Channel(s) : 6 channels
Channel layout : L R C LFE Ls Rs
Sampling rate : 48.0 kHz
Frame rate : 31.250 FPS (1536 SPF)
Compression mode : Lossy
Stream size : 543 MiB (17%)
Title : English
Language : English
Service kind : Complete Main
Default : No
Forced : No
Complexity index : 16
Number of dynamic objects : 15
Bed channel count : 1 channel
Bed channel configuration : LFE
Text #1
ID : 4
Format : UTF-8
Codec ID : S_TEXT/UTF8
Codec ID/Info : UTF-8 Plain Text
Duration : 1 h 34 min
Bit rate : 1 b/s
Count of elements : 38
Stream size : 1.33 KiB (0%)
Title : Forced
Language : Russian
Default : Yes
Forced : No
Text #2
ID : 5
Format : UTF-8
Codec ID : S_TEXT/UTF8
Codec ID/Info : UTF-8 Plain Text
Duration : 1 h 34 min
Bit rate : 82 b/s
Count of elements : 1178
Stream size : 57.3 KiB (0%)
Title : Russian
Language : Russian
Default : No
Forced : No
Text #3
ID : 6
Format : UTF-8
Codec ID : S_TEXT/UTF8
Codec ID/Info : UTF-8 Plain Text
Duration : 36 s 917 ms
Bit rate : 57 b/s
Count of elements : 8
Stream size : 265 Bytes (0%)
Title : English - [Forced]
Language : English
Default : No
Forced : Yes
Text #4
ID : 7
Format : UTF-8
Codec ID : S_TEXT/UTF8
Codec ID/Info : UTF-8 Plain Text
Duration : 1 h 34 min
Bit rate : 100 b/s
Count of elements : 1741
Stream size : 69.6 KiB (0%)
Title : English
Language : English
Default : No
Forced : No
Text #5
ID : 8
Format : UTF-8
Codec ID : S_TEXT/UTF8
Codec ID/Info : UTF-8 Plain Text
Duration : 1 h 34 min
Bit rate : 53 b/s
Count of elements : 1168
Stream size : 37.1 KiB (0%)
Title : German
Language : German
Default : No
Forced : No
Text #6
ID : 9
Format : UTF-8
Codec ID : S_TEXT/UTF8
Codec ID/Info : UTF-8 Plain Text
Duration : 1 h 34 min
Bit rate : 51 b/s
Count of elements : 1207
Stream size : 35.8 KiB (0%)
Title : French
Language : French
Default : No
Forced : No
Text #7
ID : 10
Format : UTF-8
Codec ID : S_TEXT/UTF8
Codec ID/Info : UTF-8 Plain Text
Duration : 1 h 34 min
Bit rate : 47 b/s
Count of elements : 1183
Stream size : 33.1 KiB (0%)
Title : Spanish
Language : Spanish
Default : No
Forced : No
Text #8
ID : 11
Format : UTF-8
Codec ID : S_TEXT/UTF8
Codec ID/Info : UTF-8 Plain Text
Duration : 1 h 34 min
Bit rate : 48 b/s
Count of elements : 1234
Stream size : 33.7 KiB (0%)
Title : Portuguese
Language : Portuguese
Default : No
Forced : No
Text #9
ID : 12
Format : UTF-8
Codec ID : S_TEXT/UTF8
Codec ID/Info : UTF-8 Plain Text
Duration : 1 h 34 min
Bit rate : 47 b/s
Count of elements : 1146
Stream size : 33.0 KiB (0%)
Title : Italian
Language : Italian
Default : No
Forced : No
[Profile] [PM]
Display posts:    
Reply to topic

Current time is: 25-Oct 00:04

All times are UTC + 3



You cannot post new topics in this forum
You cannot reply to topics in this forum
You cannot edit your posts in this forum
You cannot delete your posts in this forum
You cannot vote in polls in this forum
You cannot attach files in this forum
You cannot download files in this forum