Похищенный [1-2 серии из 2] (2020) WEB-DLRip от GeneralFilm

Reply to topic
 
Author Message

vsobbol ®

Gender: Male

Longevity: 1 year 11 months

Posts: 731

Location: Донецк

Post 17-Oct-2020 00:10

[Quote]

Похищенный
Год выпуска: 2020
Жанр: Детектив, криминал
Выпущено: Россия, «Твин», «Яуза-Филь»
Режиссер: Владимир Фатьянов
В ролях: Александра Лупашко, Дмитрий Паламарчук, Дмитрий Мазуров, Ксения Щербакова, Борис Щербаков, Наталья Бортникова, Евгений Хазов, Виктор Овсянников, Олег Филипчик, Артём Крестников, Сергей Савлук, Ярослав Вершинин
О фильме: Спустя год после смерти мужа Нина находит в его вещах флешку с видеозаписью мальчика, который в объектив просит маму сделать то, что требуют похитители. Поиски этого мальчика приводят Нину к тайнам, которые скрывал её муж последние годы. Идти по дороге, ведущей к правде, оказывается и страшно, и грустно, и в то же время увлекательно. Тем более, что у героини вскоре появляется попутчик...
Качество: WEB-DLRip
Видео: XviD build 69, 720x400 (16:9), 25.000 fps, 1535 Kbps (0.213 bit/pixel)
Аудио: 48.0 kHz, MP3, 2/0 ch, 192 kbps
Продолжительность: 2 x ~ 00:44:00
Перевод: Не требуется [Русский]
Cубтитры: нет

Скриншоты

MediaInfo

General
Complete name : D:\Razdachi\Pohishennyj.2020.WEB-DLRip.GeneralFilm\e01.Pohishennyj.avi
Format : AVI
Format/Info : Audio Video Interleave
File size : 542 MiB
Duration : 43 min 39 s
Overall bit rate : 1 737 kb/s
Writing application : VirtualDubMod 1.5.10.3 | www.virtualdub-fr.org || (build 2550/release)
Writing library : VirtualDubMod build 2550/release
Video
ID : 0
Format : MPEG-4 Visual
Format profile : Advanced Simple@L5
Format settings : BVOP1
Format settings, BVOP : 1
Format settings, QPel : No
Format settings, GMC : No warppoints
Format settings, Matrix : Default (H.263)
Codec ID : XVID
Codec ID/Hint : XviD
Duration : 43 min 39 s
Bit rate : 1 535 kb/s
Width : 720 pixels
Height : 400 pixels
Display aspect ratio : 16:9
Frame rate : 25.000 FPS
Color space : YUV
Chroma subsampling : 4:2:0
Bit depth : 8 bits
Scan type : Progressive
Compression mode : Lossy
Bits/(Pixel*Frame) : 0.213
Stream size : 479 MiB (88%)
Writing library : XviD 69
Audio
ID : 1
Format : MPEG Audio
Format version : Version 1
Format profile : Layer 3
Codec ID : 55
Codec ID/Hint : MP3
Duration : 43 min 39 s
Bit rate mode : Constant
Bit rate : 192 kb/s
Channel(s) : 2 channels
Sampling rate : 48.0 kHz
Frame rate : 41.667 FPS (1152 SPF)
Compression mode : Lossy
Stream size : 60.0 MiB (11%)
Alignment : Aligned on interleaves
Interleave, duration : 40 ms (1.00 video frame)
Interleave, preload duratio : 504 ms
Writing library : LAME3.99r
Encoding settings : -m s -V 4 -q 2 -lowpass 18.6 -b 192
Релиз от:
[Profile] [PM]
Display posts:    
Reply to topic

Current time is: 24-Oct 23:23

All times are UTC + 3



You cannot post new topics in this forum
You cannot reply to topics in this forum
You cannot edit your posts in this forum
You cannot delete your posts in this forum
You cannot vote in polls in this forum
You cannot attach files in this forum
You cannot download files in this forum