Разговорник (2020) WEB-DLRip-AVC от Files-х

Reply to topic
 
Author Message

papa1951deda ®

Gender: Male

Longevity: 2 years 2 months

Posts: 855

Location: Казахстан

Post 22-Nov-2020 16:48

[Quote]

Разговорник Год выпуска: 2020
Жанр: Фильм-спектакль, комедия
Выпущено: Россия
Режиссер: Сергей Сенцов
В ролях: Ростислав Хаит, Леонид Барац, Камиль Ларин, Александр Демидов
О фильме: Четверо закадычных друзей собираются в уютном месте и вспоминают истории из своей жизни. Как на легендарных музыкальных квартирниках, они «джемят» по волнам памяти: рассказывают о своей молодости в Одессе и знакомствах с мэтрами эстрады, от Райкина до Жванецкого; о счастливом студенчестве и многолетней дружбе с Максимом Виторганом, Нонной Гришаевой и другими участниками спектаклей «Квартета И». Каждая история – это рефлексия на очень личную для героев тем
Качество: WEB-DLRip-AVC
Видео: MPEG-4 AVC, 1983 Кбит/с, 720x304, 24 кадр/с
Аудио: AC3, 6 ch, 384 Кбит/с
Продолжительность: 01:22:46
Перевод: Не требуется [Русский]
Cубтитры: нет

Скриншоты


MediaInfo

General
Unique ID : 229622313517066194267986588064345209781 (0xACBFA62199AA2E60A2B07D389F7BBBB5)
Complete name : C:\Users\user\Downloads\Video\Razgovornik.2020.WEB-DL.1080p.ExKinoRay (720х304).mkv
Format : Matroska
File size : 1.37 GiB
Duration : 1h 22mn
Overall bit rate : 2 368 Kbps
Encoded date : UTC 2020-11-21 05:43:31
Writing application : mkvmerge v7.8.0 ('River Man') 32bit built on Apr 3 2015 12:11:22
Writing library : libebml v1.3.1 + libmatroska v1.4.2
Video
ID : 1
Format : AVC
Format/Info : Advanced Video Codec
Format profile : High@L4.1
Format settings, CABAC : Yes
Format settings, ReFrames : 9 frames
Codec ID : V_MPEG4/ISO/AVC
Duration : 1h 22mn
Bit rate : 1 983 Kbps
Width : 720 pixels
Height : 304 pixels
Display aspect ratio : 2.35:1
Frame rate : 25.000 fps
Color space : YUV
Chroma subsampling : 4:2:0
Bit depth : 8 bits
Scan type : Progressive
Bits/(Pixel*Frame) : 0.362
Stream size : 1.12 GiB (82%)
Writing library : x264 core 146 r2538 121396c
Encoding settings : cabac=1 / ref=9 / deblock=1:-2:-1 / analyse=0x3:0x133 / me=umh / subme=9 / psy=1 / psy_rd=1.00:0.15 / mixed_ref=1 / me_range=32 / chroma_me=1 / trellis=2 / 8x8dct=1 / cqm=0 / deadzone=21,11 / fast_pskip=0 / chroma_qp_offset=-3 / threads=18 / lookahead_threads=2 / sliced_threads=0 / nr=0 / decimate=1 / interlaced=0 / bluray_compat=0 / constrained_intra=0 / bframes=9 / b_pyramid=2 / b_adapt=2 / b_bias=0 / direct=3 / weightb=1 / open_gop=0 / weightp=2 / keyint=250 / keyint_min=25 / scenecut=40 / intra_refresh=0 / rc=2pass / mbtree=0 / bitrate=1983 / ratetol=1.0 / qcomp=0.60 / qpmin=0 / qpmax=69 / qpstep=4 / cplxblur=20.0 / qblur=0.5 / ip_ratio=1.40 / pb_ratio=1.30 / aq=2:1.00
Color primaries : BT.709-5, BT.1361, IEC 61966-2-4, SMPTE RP177
Transfer characteristics : BT.709-5, BT.1361
Matrix coefficients : BT.709-5, BT.1361, IEC 61966-2-4 709, SMPTE RP177
Audio
ID : 2
Format : AC-3
Format/Info : Audio Coding 3
Mode extension : CM (complete main)
Codec ID : A_AC3
Duration : 1h 22mn
Bit rate mode : Constant
Bit rate : 384 Kbps
Channel(s) : 6 channels
Channel positions : Front: L C R, Side: L R, LFE
Sampling rate : 48.0 KHz
Bit depth : 16 bits
Compression mode : Lossy
Stream size : 227 MiB (16%)
Релиз от:

Release was prepared by RG Files-x

[Profile] [PM]
Display posts:    
Reply to topic

Current time is: 27-Jan 04:47

All times are UTC + 3



You cannot post new topics in this forum
You cannot reply to topics in this forum
You cannot edit your posts in this forum
You cannot delete your posts in this forum
You cannot vote in polls in this forum
You cannot attach files in this forum
You cannot download files in this forum