Топи [1-7 серия из 7] (2021) WEBRip-AVC от Files-х

Reply to topic
 
Author Message

bond74 ®

Gender: Male

Longevity: 2 years 10 months

Posts: 1276

Post 29-Jan-2021 12:39

[Quote]

Топи
Год выпуска: 2021
Жанр: Триллер, мистика
Выпущено: Россия, КиноПоиск HD, Медиа Юниверсал Ивент
Режиссер: Владимир Мирзоев
В ролях: Иван Янковский, Тихон Жизневский, Катерина Шпица, Софья Володчинская, Анастасия Крылова, Максим Суханов, Марина Васильева (II), Александра Бортич, Гела Месхи, Александр Доронин, Татьяна Владимирова
О фильме: Пять молодых москвичей едут в таинственный монастырь в деревне Топи, надеясь найти там помощь и ответы на свои вопросы. У каждого из них своя драма: несчастная любовь, чувство вины за смерть близкого, неизлечимая болезнь… Но в Топях участников экспедиции ждёт не исцеление, а встреча с собственными страхами. И выбраться из полумертвой деревни почти невозможно.
Качество: WEBRip-AVC
Видео: MPEG-4 AVC, ~ 1600 Кбит/с, 720x304, 25 кадр/с
Аудио #1: AC3, 6 ch, 192 Кбит/с (с цензурой)
Аудио #2: AC3, 6 ch, 192 Кбит/с (без цензуры, 18+)
Продолжительность: 7 х ~ 00:53:00
Перевод: Не требуется
Субтитры: Русские

Скриншоты


MediaInfo

General
Unique ID : 326009424996020619312412948545749844539 (0xF54321A1CE9CAAF0F45EAC2436AF023B)
Complete name : H:\fiiles x\Топи.2021.WEB-DLRip.Files-x\02. Топи.2021.WEB-DLRip.Files-x.mkv
Format : Matroska
File size : 844 MiB
Duration : 59mn 27s
Overall bit rate : 1 986 Kbps
Encoded date : UTC 2021-01-29 07:32:26
Writing application : mkvmerge v32.0.0 ('Astral Progressions') 64-bit
Writing library : libebml v1.3.7 + libmatroska v1.5.0
DURATION : 00:59:27.136000000
NUMBER_OF_FRAMES : 111473
NUMBER_OF_BYTES : 85611264
_STATISTICS_WRITING_APP : mkvmerge v32.0.0 ('Astral Progressions') 64-bit
_STATISTICS_WRITING_DATE_UTC : 2021-01-29 07:32:26
_STATISTICS_TAGS : BPS DURATION NUMBER_OF_FRAMES NUMBER_OF_BYTES
Video
ID : 3
Format : AVC
Format/Info : Advanced Video Codec
Format profile : High@L4.1
Format settings, CABAC : Yes
Format settings, ReFrames : 9 frames
Format settings, GOP : M=10, N=26
Codec ID : V_MPEG4/ISO/AVC
Duration : 59mn 27s
Bit rate : 1 600 Kbps
Width : 720 pixels
Height : 304 pixels
Display aspect ratio : 2.35:1
Frame rate : 25.000 fps
Color space : YUV
Chroma subsampling : 4:2:0
Bit depth : 8 bits
Scan type : Progressive
Bits/(Pixel*Frame) : 0.292
Stream size : 664 MiB (79%)
Writing library : x264 core 146 r2538 121396c
Encoding settings : cabac=1 / ref=9 / deblock=1:-2:-1 / analyse=0x3:0x133 / me=umh / subme=9 / psy=1 / psy_rd=1.00:0.15 / mixed_ref=1 / me_range=32 / chroma_me=1 / trellis=2 / 8x8dct=1 / cqm=0 / deadzone=21,11 / fast_pskip=0 / chroma_qp_offset=-3 / threads=18 / lookahead_threads=2 / sliced_threads=0 / nr=0 / decimate=1 / interlaced=0 / bluray_compat=0 / constrained_intra=0 / bframes=9 / b_pyramid=2 / b_adapt=2 / b_bias=0 / direct=1 / weightb=1 / open_gop=0 / weightp=2 / keyint=250 / keyint_min=25 / scenecut=40 / intra_refresh=0 / rc=2pass / mbtree=0 / bitrate=1600 / ratetol=1.0 / qcomp=0.60 / qpmin=0 / qpmax=69 / qpstep=4 / cplxblur=20.0 / qblur=0.5 / ip_ratio=1.40 / pb_ratio=1.30 / aq=2:1.00
Language : English
Color primaries : BT.709-5, BT.1361, IEC 61966-2-4, SMPTE RP177
Transfer characteristics : BT.709-5, BT.1361
Matrix coefficients : BT.709-5, BT.1361, IEC 61966-2-4 709, SMPTE RP177
Audio #1
ID : 1
Format : AC-3
Format/Info : Audio Coding 3
Mode extension : CM (complete main)
Codec ID : A_AC3
Duration : 59mn 27s
Bit rate mode : Constant
Bit rate : 192 Kbps
Channel(s) : 6 channels
Channel positions : Front: L C R, Side: L R, LFE
Sampling rate : 48.0 KHz
Bit depth : 16 bits
Compression mode : Lossy
Stream size : 81.6 MiB (10%)
DURATION : 00:59:27.160000000
NUMBER_OF_FRAMES : 89179
NUMBER_OF_BYTES : 713338837
_STATISTICS_WRITING_APP : mkvmerge v32.0.0 ('Astral Progressions') 64-bit
_STATISTICS_WRITING_DATE_UTC : 2021-01-29 07:32:26
_STATISTICS_TAGS : BPS DURATION NUMBER_OF_FRAMES NUMBER_OF_BYTES
Audio #2
ID : 2
Format : AC-3
Format/Info : Audio Coding 3
Mode extension : CM (complete main)
Codec ID : A_AC3
Duration : 59mn 27s
Bit rate mode : Constant
Bit rate : 192 Kbps
Channel(s) : 6 channels
Channel positions : Front: L C R, Side: L R, LFE
Sampling rate : 48.0 KHz
Bit depth : 16 bits
Compression mode : Lossy
Stream size : 81.6 MiB (10%)

Внимание! Раздача ведётся путём добавления новых серий

Раздача ведётся путём добавления новых серий, при каждом добавлении создаётся новый торрент. Чтобы начать докачку новой серии, пользователям необходимо сделать следующее:
- Остановить скачивание.
- Удалить старый торрент у себя из клиента (старые серии удалять не надо).
- Скачать новый торрент и запустить его у себя в клиенте вместо старого, при этом указать клиенту путь в старую папку куда и должно происходить скачивание новых серий.
Ваш клиент при этом должен произвести хеширование (проверку) старой папки (если не производит сам - помогите ему сделать это), и будет докачивать только те серии которых у вас ещё нет. Старые серии при этом не удаляются, а продолжают раздаваться!
Если вы уже удалили старые серии, то предотвратить повторную закачку старых серий можно, отжав галочку в соответствующих местах при запуске нового торрента. По возможности, желательно не удалять старые серии как можно дольше, чтобы релизер не столько продолжал раздавать старые серии, а смог сконцентрироваться на новых.
Релиз от:

Release was prepared by RG Files-x

[Profile] [PM]
Display posts:    
Reply to topic

Current time is: 24-Sep 15:42

All times are UTC + 3



You cannot post new topics in this forum
You cannot reply to topics in this forum
You cannot edit your posts in this forum
You cannot delete your posts in this forum
You cannot vote in polls in this forum
You cannot attach files in this forum
You cannot download files in this forum