В боевой готовности / Embattled (2020) BDRip 1080p [DUB] от R.G.Generalfilm | iTunes

Reply to topic
 
Author Message

White Smoke ®

Gender: Male

Longevity: 2 years 10 months

Posts: 194

Post 08-Jul-2021 09:21

[Quote]

В боевой готовности / Embattled

God. Country. Family. Fight.Год выпуска: 2020
Жанр: боевик, драма, спорт
Выпущено: США | Blitz Films, La Costa Productions, Wild League Productions
Режиссер: Николай Саркисов
В ролях: Дональд Фэйсон (Mr. Stewart), Элизабет Ризер (Susan), Стивен Дорфф (Cash), Дрю Шейд (Brian), Ава Капри (Keaton Carmichael), Саид Тагмауи (Claude), Карруче Тран (Jade), Дрю Старки (Tanner Van Holt), Даррен Манн (Jett Boykins), Майкл Фостер (Richie Simmonsma), Линдси Гаррет (Ms. Malek), Марк Файт (David Adelsberg)
О фильме: Молодой боец ММА выходит на свой первый бой, стремясь повторить путь своего знаменитого отца — чемпиона в этом виде спорта. Но порочный круг жестокости, который поддерживал отец, оказался для сына точкой невозврата и желанием обрести свой путь.
Мировая премьера: 20 ноября 2020 (США)

MPAA: R - Лицам до 17 лет обязательно присутствие взрослого
Качество: BDRip 1080p
Видео: AVC, 1920x800 (2.40:1), 23.976 fps, 10.8 Mb/s (0.293 bit/pixel)
Аудио: русский, AC3, 5.1, 48 kHz, 384 kbps CBR
Продолжительность: 01:57:05
Перевод : Дублированный [iTunes]
Субтитры: русские (Forced)

Скриншоты

MediaInfo

General
Unique ID : 221494871106076317821572902866271388126 (0xA6A25C485C5E1E7A974EDE2B36BCC1DE)
Complete name : D:\Embattled.2020.BDRip-1080p.Rip.by.White Smoke.R.G.Generalfilm.mkv
Format : Matroska
Format version : Version 4 / Version 2
File size : 9.12 GiB
Duration : 1 h 57 min
Overall bit rate : 11.2 Mb/s
Movie name : Embattled.2020.BDRip-1080p.Rip.by.White Smoke.R.G.Generalfilm.mkv
Encoded date : UTC 2021-07-08 05:41:32
Writing application : mkvmerge v6.8.0 ('Theme for Great Cities') 64bit built on Mar 2 2014 21:34:26
Writing library : libebml v1.3.0 + libmatroska v1.4.1
Video
ID : 1
Format : AVC
Format/Info : Advanced Video Codec
Format profile : High@L4.1
Format settings, CABAC : Yes
Format settings, ReFrames : 4 frames
Codec ID : V_MPEG4/ISO/AVC
Duration : 1 h 57 min
Bit rate : 10.8 Mb/s
Width : 1 920 pixels
Height : 800 pixels
Display aspect ratio : 2.40:1
Frame rate mode : Constant
Frame rate : 23.976 FPS
Color space : YUV
Chroma subsampling : 4:2:0
Bit depth : 8 bits
Scan type : Progressive
Bits/(Pixel*Frame) : 0.293
Stream size : 8.63 GiB (95%)
Writing library : x264 core 130 r2273 b3065e6
Encoding settings : cabac=1 / ref=4 / deblock=1:-2:-1 / analyse=0x3:0x133 / me=umh / subme=10 / psy=1 / psy_rd=1.00:0.15 / mixed_ref=1 / me_range=32 / chroma_me=1 / trellis=2 / 8x8dct=1 / cqm=0 / deadzone=21,11 / fast_pskip=0 / chroma_qp_offset=-3 / threads=48 / lookahead_threads=6 / sliced_threads=0 / nr=0 / decimate=1 / interlaced=0 / bluray_compat=0 / constrained_intra=0 / bframes=9 / b_pyramid=2 / b_adapt=2 / b_bias=0 / direct=1 / weightb=1 / open_gop=0 / weightp=2 / keyint=240 / keyint_min=23 / scenecut=40 / intra_refresh=0 / rc=2pass / mbtree=0 / bitrate=10800 / ratetol=1.0 / qcomp=0.60 / qpmin=0 / qpmax=69 / qpstep=4 / cplxblur=20.0 / qblur=0.5 / ip_ratio=1.40 / pb_ratio=1.30 / aq=2:1.00
Language : English
Default : Yes
Forced : No
Color range : Limited
Color primaries : BT.709
Transfer characteristics : BT.709
Matrix coefficients : BT.709
Audio
ID : 2
Format : AC-3
Format/Info : Audio Coding 3
Mode extension : CM (complete main)
Format settings, Endianness : Big
Codec ID : A_AC3
Duration : 1 h 57 min
Bit rate mode : Constant
Bit rate : 384 kb/s
Channel(s) : 6 channels
Channel positions : Front: L C R, Side: L R, LFE
Sampling rate : 48.0 kHz
Frame rate : 31.250 FPS (1536 spf)
Compression mode : Lossy
Stream size : 322 MiB (3%)
Title : iTunes
Language : Russian
Default : Yes
Forced : Yes
Text
ID : 3
Format : UTF-8
Codec ID : S_TEXT/UTF8
Codec ID/Info : UTF-8 Plain Text
Title : Forced
Language : Russian
Default : Yes
Forced : Yes
Menu
00:00:00.000 : :Chapter 01
00:10:33.299 : :Chapter 02
00:18:28.149 : :Chapter 03
00:30:37.127 : :Chapter 04
00:41:53.553 : :Chapter 05
00:52:06.707 : :Chapter 06
01:02:15.774 : :Chapter 07
01:12:43.317 : :Chapter 08
01:23:40.432 : :Chapter 09
01:31:01.998 : :Chapter 10
01:40:34.111 : :Chapter 11
01:50:00.302 : :Chapter 12
Релиз от:
[Profile] [PM]
Display posts:    
Reply to topic

Current time is: 21-Sep 14:28

All times are UTC + 3



You cannot post new topics in this forum
You cannot reply to topics in this forum
You cannot edit your posts in this forum
You cannot delete your posts in this forum
You cannot vote in polls in this forum
You cannot attach files in this forum
You cannot download files in this forum