Обитель зла: Бесконечная тьма / Resident Evil: Infinite Darkness [1 сезон: 1-4 серия из 4] (2021) WEB-DLRip-AVC от Generalfilm | AlexFilm

Reply to topic
 
Author Message

White Smoke ®

Gender: Male

Longevity: 2 years 10 months

Posts: 194

Post 11-Jul-2021 11:32

[Quote]

Обитель зла: Бесконечная тьма / Resident Evil: Infinite DarknessГод выпуска: 2021
Жанр: аниме, мультфильм, ужасы
Выпущено: США, Япония, Capcom Company, Netflix, okyo Movie Shinsha Co. Ltd.
Режиссер: Эиитиро Хасуми
В ролях: Ник Апостолидес (Leon Kennedy, озвучка), Стефани Паниселло (Claire Redfield, озвучка), Джона Сяо (Shen May, озвучка), Рэй Чейз (Jason, озвучка), Билли Каметц (Patrick, озвучка), Даг Стоун (Ryan, озвучка), Джо Томас (Graham, озвучка), Брэд Венейбл (Wilson, озвучка)
О фильме: 2006 год. Леон Кеннеди прибывает в Белый дом расследовать хакерскую атаку и на месте застает очередной прорыв зомби. Вместе с Клэр Рэтфилд он пытается разгадать чей-то зловещий план и вычислить злоумышленников.
Мировая премьера: 8 июля 2021 (США)

Качество: WEB-DLRip-AVC
Видео: AVC, 1024x552 (1.85:1), 1360 kbps, 24 fps, 0,100 bpp
Аудио: русский, AC3, 5.1, 48 kHz, 384 kbps CBR
Продолжительность: 00:26:06
Перевод : Профессиональный многоголосый [AlexFilm]
Субтитры: русские (Forced)

Скриншоты

MediaInfo

General
Unique ID : 191850899011091427526203048485147193541 (0x9055239DC81BA88DA2716A8AB4B930C5)
Complete name : D:\запись с тв и прочее\Resident Evil Infinite Darkness S01 2021 WEB-DLRip-AVC AlexFilm R.G.Generalfilm\Resident Evil Infinite Darkness.s01e01.2021.WEB-DLRip-AVC.by.White Smoke.AlexFilm R.G.Generalfilm.mkv
Format : Matroska
Format version : Version 4 / Version 2
File size : 325 MiB
Duration : 26 min
Overall bit rate : 1 742 kb/s
Movie name : Resident Evil Infinite Darkness.s01e01.2021.WEB-DLRip-AVC.by.White Smoke.AlexFilm R.G.Generalfilm.mkv
Encoded date : UTC 2021-07-11 07:54:31
Writing application : mkvmerge v6.8.0 ('Theme for Great Cities') 64bit built on Mar 2 2014 21:34:26
Writing library : libebml v1.3.0 + libmatroska v1.4.1
Video
ID : 1
Format : AVC
Format/Info : Advanced Video Codec
Format profile : High@L4.1
Format settings, CABAC : Yes
Format settings, ReFrames : 9 frames
Codec ID : V_MPEG4/ISO/AVC
Duration : 26 min
Bit rate : 1 360 kb/s
Width : 1 024 pixels
Height : 552 pixels
Display aspect ratio : 1.85:1
Frame rate mode : Constant
Frame rate : 24.000 FPS
Color space : YUV
Chroma subsampling : 4:2:0
Bit depth : 8 bits
Scan type : Progressive
Bits/(Pixel*Frame) : 0.100
Stream size : 247 MiB (76%)
Writing library : x264 core 130 r2273 b3065e6
Encoding settings : cabac=1 / ref=9 / deblock=1:-2:-1 / analyse=0x3:0x133 / me=umh / subme=10 / psy=1 / psy_rd=1.00:0.15 / mixed_ref=1 / me_range=32 / chroma_me=1 / trellis=2 / 8x8dct=1 / cqm=0 / deadzone=21,11 / fast_pskip=0 / chroma_qp_offset=-3 / threads=48 / lookahead_threads=4 / sliced_threads=0 / nr=0 / decimate=1 / interlaced=0 / bluray_compat=0 / constrained_intra=0 / bframes=9 / b_pyramid=2 / b_adapt=2 / b_bias=0 / direct=1 / weightb=1 / open_gop=0 / weightp=2 / keyint=240 / keyint_min=24 / scenecut=40 / intra_refresh=0 / rc=2pass / mbtree=0 / bitrate=1360 / ratetol=1.0 / qcomp=0.60 / qpmin=0 / qpmax=69 / qpstep=4 / cplxblur=20.0 / qblur=0.5 / ip_ratio=1.40 / pb_ratio=1.30 / aq=2:1.00
Language : English
Default : Yes
Forced : No
Color range : Limited
Color primaries : BT.709
Transfer characteristics : BT.709
Matrix coefficients : BT.709
Audio
ID : 2
Format : AC-3
Format/Info : Audio Coding 3
Mode extension : CM (complete main)
Format settings, Endianness : Big
Codec ID : A_AC3
Duration : 26 min
Bit rate mode : Constant
Bit rate : 384 kb/s
Channel(s) : 6 channels
Channel positions : Front: L C R, Side: L R, LFE
Sampling rate : 48.0 kHz
Frame rate : 31.250 FPS (1536 spf)
Compression mode : Lossy
Stream size : 71.7 MiB (22%)
Title : AlexFilm
Language : Russian
Default : Yes
Forced : No
Text
ID : 3
Format : UTF-8
Codec ID : S_TEXT/UTF8
Codec ID/Info : UTF-8 Plain Text
Title : Forced
Language : Russian
Default : Yes
Forced : No
Релиз от:
[Profile] [PM]
Display posts:    
Reply to topic

Current time is: 21-Sep 13:24

All times are UTC + 3



You cannot post new topics in this forum
You cannot reply to topics in this forum
You cannot edit your posts in this forum
You cannot delete your posts in this forum
You cannot vote in polls in this forum
You cannot attach files in this forum
You cannot download files in this forum