Вертинский [1-3 серии из 8] (2021) WEBRip 1080p

Reply to topic
 
Author Message

Nicodem ®

Gender: Male

Longevity: 2 years 10 months

Posts: 933

Post 13-Sep-2021 07:39

[Quote]

Вертинский
Год выпуска: 2021
Жанр: Биография, драма, музыка
Выпущено: Россия, Первый канал, ООО "Грано", Фонд поддержки социальных и культурных проектов "Альма-матер", Кинокомпания "Глобус-фильм"
Режиссер: Авдотья Смирнова
В ролях: Алексей Филимонов, Дарья Кукарских, Анастасия Немец, Анна Виллер, Андрей Щеткин, Юлия Марченко, Андрей Смирнов, Сергей Уманов, Паулина Андреева, Степан Девонин, Павел Ерлыков, Анна Михалкова, Сергей Рост, Александр Устюгов, Алёна Бабенко, Геннадий Смирнов, Павел Чинарёв, Екатерина Щеглова, Фёдор Лавров, Виктория Исакова, Михаил Трухин, Наталья Рогожкина, Анна Мишина, Ксения Раппопорт, Полина Виторган, Екатерина Вилкова, Алексей Смирнов (VI), Василий Копейкин, Ромуальд Макаренко
О фильме: Биография самого известного русского шансонье ХХ века. История артиста, покинувшего Россию 1919 года и вернувшегося в СССР 1943, в разгар Второй мировой. Вертинский жил, пел и был популярен в Константинополе, Париже, Берлине, Нью-Йорке, Лос-Анджелесе, Харбине, Шанхае и в Москве. Его любили прекрасные женщины, ему аплодировали королевские особы и воры. Он был человеком богемы, легким и весёлым. Однако эта картина, в первую очередь, о его доброте. Об умении не судить, а пожалеть, посочувствовать любому. И за это судьба одарила его огромным успехом и поздним семейным счастьем. Это история о том, как певчая птица, артист, легкомысленное существо может прожить жизнь, вызывающую и зависть, и уважение.
Версия 18+. Внимание! Присутствует не нормативная лексика.

Качество: WEBRip 1080p
Видео: MPEG-4 AVC, ~ 6144 Кбит/с, 1920x1080, 25 кадр/с
Аудио: AC3, 2 ch, 192 Кбит/с
Продолжительность: 3 х 00:57:00
Перевод: Не требуется
Субтитры: Нет

Скриншоты



MediaInfo

General
Unique ID : 220739205806441108878611132367617693706 (0xA610D31B5D20CCBABABEE2989010980A)
Complete name : C:Vertinskiy.e01.2021.WEB-DL.(1080p).Getty.mkv
Format : Matroska
File size : 2.53 GiB
Duration : 57mn 50s
Overall bit rate : 6 274 Kbps
Movie name : Vertinskiy.e01.2021.WEB-DL.(1080p).Getty
Encoded date : UTC 2021-09-12 21:18:19
Writing application : mkvmerge v7.8.0 ('River Man') 32bit built on Mar 27 2015 16:18:02
Writing library : libebml v1.3.1 + libmatroska v1.4.2
Video
ID : 1
Format : AVC
Format/Info : Advanced Video Codec
Format profile : Baseline@L4.0
Format settings, CABAC : No
Format settings, ReFrames : 2 frames
Codec ID : V_MPEG4/ISO/AVC
Duration : 57mn 50s
Bit rate mode : Constant
Bit rate : 6 144 Kbps
Width : 1 920 pixels
Height : 1 080 pixels
Display aspect ratio : 16:9
Frame rate : 25.000 fps
Color space : YUV
Chroma subsampling : 4:2:0
Bit depth : 8 bits
Scan type : Progressive
Bits/(Pixel*Frame) : 0.119
Stream size : 2.41 GiB (95%)
Audio
ID : 2
Format : AC-3
Format/Info : Audio Coding 3
Mode extension : CM (complete main)
Codec ID : A_AC3
Duration : 57mn 50s
Bit rate mode : Constant
Bit rate : 192 Kbps
Channel(s) : 2 channels
Channel positions : Front: L R
Sampling rate : 48.0 KHz
Bit depth : 16 bits
Compression mode : Lossy
Stream size : 79.4 MiB (3%)

Содержание

1 серия "Кокаинетка"
2 серия "То, что я должен сказать"
3 серия ""
4 серия ""
5 серия ""
6 серия ""
7 серия ""
8 серия ""

Раздача ведётся путём добавления новых серий

Внимание! Раздача ведётся путём добавления новых серий; при каждом добавлении создаётся новый торрент.
Чтобы начать докачку новой серии, пользователям необходимо сделать следующее:
1. Остановить скачивание;
2. Удалить старый торрент у себя из клиента (старые серии удалять не надо);
3. Скачать новый торрент и запустить его у себя в клиенте вместо старого, при этом указать клиенту путь в старую папку куда и должно происходить скачивание новых серий. Ваш клиент при этом должен произвести хеширование (проверку) старой папки и будет докачивать только те серии, которых у вас ещё нет. Старые серии при этом не удаляются, а продолжают раздаваться! Eсли вы уже удалили старые серии, то предотвратить повторную закачку старых серий можно, отжав галочку в соответствующих местах при запуске нового торрента.


Last edited by Nicodem on Yesterday 09:47; edited 2 times in total
[Profile] [PM]

Nicodem ®

Gender: Male

Longevity: 2 years 10 months

Posts: 933

Post 13-Sep-2021 07:42 (after 3 minutes)

[Quote]

forunzak писал

* В 1 серии справа и слева черный полосы (Вкладка Скриншоты, 1-2 скриншот).
* В 2 серии нормально уже без черных полос (Вкладка Скриншоты, 3-4 скриншот). KION решил так сделать, видимо так задумано.
**Версия 18+ (Информация согласно сайту KION и заставки в начале 1-2 серии).
[Profile] [PM]
Display posts:    
Reply to topic

Current time is: 21-Sep 13:34

All times are UTC + 3



You cannot post new topics in this forum
You cannot reply to topics in this forum
You cannot edit your posts in this forum
You cannot delete your posts in this forum
You cannot vote in polls in this forum
You cannot attach files in this forum
You cannot download files in this forum