Леонид Быков. Арфы нет - возьмите бубен! (2018) SATRip

Reply to topic
 
Author Message

Chelovek91 ®

Gender: Male

Longevity: 5 months 8 days

Posts: 6

Post 15-Dec-2018 23:26

[Quote]

Леонид Быков. Арфы нет - возьмите бубен!
Год выпуска: 2018
Жанр: Документальный, биография, история
Выпущено: Россия, «Студия Сергея Медведева»
Режиссер: Ирина Голубева
В ролях: Марьяна Быкова, Валентина Теличкина, Евгения Симонова, Владимир Конкин, Андрей Мерзликин, Светлана Дружинина, Владимир Герасимов, Ольга Красина, Георгий Штиль, Александр Поздняков, Ирина Павлова, Сергей Цыганков
О фильме: Когда в памяти возникает образ этого актера, то всегда невольно улыбаешься… Леонида Быкова любили все. За редкое положительное обаяние, искренность, теплоту, южный говорок и чувство юмора, которое его герои не теряли в любой жизненной ситуации.
Качество: SATRip
Видео: XviD, ~ 1800 Кбит/с, 704x456, 25 кадр/с
Аудио: AC3, 2 ch, 192 Кбит/с
Продолжительность: 00:47:21
Перевод: Не требуется
Cубтитры: нет

Скриншоты


MediaInfo

General
Полное имя : C:\Users\Андрей\Downloads\Leonid.Bykov-Arfy.Net.Vozmite.Buben.SATRip.[riperam.org].avi
Формат : AVI
Формат/Информация : Audio Video Interleave
Размер файла : 678 MiB
Продолжительность : 47 min 21 s
Общий поток : 2 001 kb/s
Программа кодирования : VirtualDubMod 1.5.10.3 | www.virtualdub-fr.org || (build 2550/release)
Библиотека кодирования : VirtualDubMod build 2550/release
Video
Идентификатор : 0
Формат : MPEG-4 Visual
Профиль формата : Advanced Simple@L5
Настройки формата : BVOP2
Параметр BVOP формата : 2
Параметр QPel формата : No
Параметр GMC формата : No warppoints
Параметр матрицы формата : Default (H.263)
Идентификатор кодека : XVID
Идентификатор кодека/Подсказка : XviD
Продолжительность : 47 min 21 s
Битрейт : 1 800 kb/s
Ширина : 704 pixels
Высота : 456 pixels
Соотношение сторон : 3:2
Частота кадров : 25.000 FPS
Цветовое пространство : YUV
Субдискретизация насыщенности : 4:2:0
Битовая глубина : 8 bits
Тип развёртки : Progressive
Метод сжатия : Lossy
Бит/(Пиксели*Кадры) : 0.224
Размер потока : 610 MiB (90%)
Библиотека кодирования : XviD 1.2.1 (UTC 2008-12-04)
Audio
Идентификатор : 1
Формат : AC-3
Формат/Информация : Audio Coding 3
Идентификатор кодека : 2000
Продолжительность : 47 min 21 s
Вид битрейта : Constant
Битрейт : 192 kb/s
Каналы : 2 channels
Расположение каналов : Front: L R
Частота : 48.0 kHz
Частота кадров : 31.250 FPS (1536 SPF)
Битовая глубина : 16 bits
Метод сжатия : Lossy
Размер потока : 65.0 MiB (10%)
Выравнивание : Split accross interleaves
Продолжительность промежутка : 40 ms (1.00 video frame)
Время предзагрузки промежутка : 500 ms
ServiceKind/String : Complete Main
Релиз от: Riperam, есть реклама.


Last edited by Chelovek91 on 2018-12-15 23:54; edited 7 times in total
[Profile] [PM]
Display posts:    
Reply to topic

Current time is: 23-May 23:58

All times are UTC + 3



You cannot post new topics in this forum
You cannot reply to topics in this forum
You cannot edit your posts in this forum
You cannot delete your posts in this forum
You cannot vote in polls in this forum
You cannot attach files in this forum
You cannot download files in this forum