12 лет рабства / 12 Years a Slave (2013) UHDTV (2160p) от Generalfilm

Reply to topic
 
Author Message

Brux ®

Gender: Male

Longevity: 3 years 9 months

Posts: 31

Post 27-May-2022 11:31

[Quote]

12 лет рабства / 12 Years a Slave Год выпуска: 2013
Жанр: Драма
Выпущено: США, Великобритания, New Regency Pictures , Plan B Entertainment, River Road Entertainment, Summit Entertainment
Режиссер: Стив МакКуин (II)
В ролях: Чиветел Эджиофор, Майкл Фассбендер, Бенедикт Камбербэтч, Пол Дано, Пол Джаматти, Лупита Нионго, Сара Полсон, Брэд Питт, Элфри Вудард, Куавенжане Уоллис
О фильме: Соломон Нортап был женатым и образованным мужчиной, который жил и работал в Нью-Йорке, когда два человека однажды предложили ему привлекательную работу в Вашингтоне. По прибытии он был похищен, стал рабом и влачил жалкую жизнь, переходя от одного хозяина к другому.
Качество: UHDTV (2160p)
Видео: HEVC, ~ 15 Mбит/с, 3840х2160, 25 кадр/с
Аудио: Русский (MP2, 2 ch, 192 Кбит/с)
Продолжительность: 02:02:59
Перевод / Озвучка: Дублированный

Скриншоты



MediaInfo

General
ID : 1 (0x1)
Complete name : C:\12 лет рабства [Generalfilm].ts
Format : MPEG-TS
File size : 12.3 GiB
Duration : 2 h 2 min
Overall bit rate mode : Variable
Overall bit rate : 14.3 Mb/s
Video
ID : 100 (0x64)
Menu ID : 1 (0x1)
Format : AVC
Format/Info : Advanced Video Codec
Format profile : High@L5.1
Format settings : CABAC / 4 Ref Frames
Format settings, CABAC : Yes
Format settings, Reference : 4 frames
Format settings, GOP : M=4, N=25
Codec ID : 27
Duration : 2 h 2 min
Bit rate mode : Variable
Bit rate : 13.4 Mb/s
Maximum bit rate : 15.0 Mb/s
Width : 3 840 pixels
Height : 2 160 pixels
Display aspect ratio : 16:9
Frame rate : 25.000 FPS
Color space : YUV
Chroma subsampling : 4:2:0
Bit depth : 8 bits
Scan type : Progressive
Bits/(Pixel*Frame) : 0.065
Stream size : 11.5 GiB (94%)
Color range : Limited
Color primaries : BT.709
Transfer characteristics : BT.709
Matrix coefficients : BT.709
Audio
ID : 200 (0xC8)
Menu ID : 1 (0x1)
Format : MPEG Audio
Format version : Version 1
Format profile : Layer 2
Codec ID : 3
Duration : 2 h 2 min
Bit rate mode : Constant
Bit rate : 192 kb/s
Channel(s) : 2 channels
Sampling rate : 44.1 kHz
Frame rate : 38.281 FPS (1152 SPF)
Compression mode : Lossy
Stream size : 169 MiB (1%)
Language : Russian
Релиз от: Brux
[Profile] [PM]
Display posts:    
Reply to topic

Current time is: 28-Sep 00:20

All times are UTC + 3



You cannot post new topics in this forum
You cannot reply to topics in this forum
You cannot edit your posts in this forum
You cannot delete your posts in this forum
You cannot vote in polls in this forum
You cannot attach files in this forum
You cannot download files in this forum