Закрыть гештальт [1-7 серии из 7] (2022) WEB-DLRip от Files-х

Reply to topic
 
Author Message

bond74 ®

Gender: Male

Longevity: 3 years 10 months

Posts: 1669

Post 12-Aug-2022 10:18

[Quote]

Закрыть гештальт
Год выпуска: 2022
Жанр: Комедия, фантастика
Выпущено: Россия, Кинокомпания "Лунапарк", "Плюс Студия"
Режиссер: Максим Пежемский
В ролях: Александр Ильин мл., Денис Власенко, Анна Зайкова, Юлия Ауг, Александр Назаров, Фёдор Лавров, Владимир Майзингер, Анастасия Крылова, Николай Шрайбер, Анатолий Горячев, Павел Майков, Дмитрий Лысенков, Глафира Тарханова, Александр Баширов, Андрей Бутин, Андрей Зайцев, Дмитрий Муляр, Андрей Бодренков, Геннадий Смирнов, Дмитрий Марин, Анна Дулова, Владимир Матвеев, Ольга Онищенко, Евгений Сытый, Алексей Секирин, Антон Денисов, Ирина Носова, Евгения Дмитриева, Наталья Никуленко, Дмитрий Шевченко, Евдокия Германова, Павел Дружинин, Виталий Крылов, Мария Вяхирева, Хельга Филиппова, Юлия Шубарева, Ольга Белинская, Ксения Новышева, Дмитрий Куличков, Михаил Дементьев, Славяна Кощеева
О фильме: Чудом уцелев после падения с 20-го этажа, менеджер автосалона Федор Ярцев обретает необычный дар: теперь он видит призраков. Злопамятная теща и школьный физрук, бандит из девяностых и пожилая интеллигентка - кто только не будет донимать Федора своими незаконченными делами. Даже его собственный юный отец, пропавший в 20 лет. Герой невольно станет посредником между мирами и поможет заблудшим душам отправиться куда следует. А заодно наладит отношения с папой, которого прежде не знал, и закроет гештальты, о существовании которых даже не подозревал.

Качество: WEB-DLRip
Видео: XviD, ~ 1600 Кбит/с, 720x304, 25 кадр/с
Аудио № 1: AC3, 48,0 КГц, 6 ch, 448 Кбит/с | С цензурой
Аудио № 2: AC3, 48,0 КГц, 6 ch, 448 Кбит/с | Без цензуры (18+)
Продолжительность: 3 x ~ 00:45:42
Перевод: Не требуется
Субтитры: Русские

Скриншоты



MediaInfo

General
Unique ID : 313800669207028018931211273050664545500 (0xEC13CF7F838B72243ACF11323B652CDC)
Complete name : F:\Закрыть гештальт.(2022).WEB-DLRip.(AVC).Files-x\01.Закрыть гештальт.(2022).WEB-DLRip.(AVC).by.Серый1779.Files-x.mkv
Format : Matroska
Format version : Version 4 / Version 2
File size : 817 MiB
Duration : 45 min 42 s
Overall bit rate : 2 498 kb/s
Movie name : Zakryt.geshtalt.S01.E01.2022.WEB-DL.1080p
Encoded date : UTC 2022-08-11 19:14:12
Writing application : mkvmerge v32.0.0 ('Astral Progressions') 64-bit
Writing library : libebml v1.3.7 + libmatroska v1.5.0
Attachments : poster.jpg
Video
ID : 1
Format : AVC
Format/Info : Advanced Video Codec
Format profile : High@L4.1
Format settings : CABAC / 9 Ref Frames
Format settings, CABAC : Yes
Format settings, RefFrames : 9 frames
Codec ID : V_MPEG4/ISO/AVC
Duration : 45 min 42 s
Bit rate : 1 600 kb/s
Width : 1 024 pixels
Height : 432 pixels
Display aspect ratio : 2.40:1
Frame rate mode : Constant
Frame rate : 25.000 FPS
Color space : YUV
Chroma subsampling : 4:2:0
Bit depth : 8 bits
Scan type : Progressive
Bits/(Pixel*Frame) : 0.145
Stream size : 523 MiB (64%)
Writing library : x264 core 146 r2538 121396c
Encoding settings : cabac=1 / ref=9 / deblock=1:-2:-1 / analyse=0x3:0x133 / me=umh / subme=9 / psy=1 / psy_rd=1.00:0.15 / mixed_ref=1 / me_range=32 / chroma_me=1 / trellis=2 / 8x8dct=1 / cqm=0 / deadzone=21,11 / fast_pskip=0 / chroma_qp_offset=-3 / threads=18 / lookahead_threads=3 / sliced_threads=0 / nr=0 / decimate=1 / interlaced=0 / bluray_compat=0 / constrained_intra=0 / bframes=9 / b_pyramid=2 / b_adapt=2 / b_bias=0 / direct=1 / weightb=1 / open_gop=0 / weightp=2 / keyint=250 / keyint_min=25 / scenecut=40 / intra_refresh=0 / rc=2pass / mbtree=0 / bitrate=1600 / ratetol=1.0 / qcomp=0.60 / qpmin=0 / qpmax=69 / qpstep=4 / cplxblur=20.0 / qblur=0.5 / ip_ratio=1.40 / pb_ratio=1.30 / aq=2:1.00
Default : Yes
Forced : No
Color range : Limited
Color primaries : BT.709
Transfer characteristics : BT.709
Matrix coefficients : BT.709
Audio #1
ID : 2
Format : AC-3
Format/Info : Audio Coding 3
Format settings, Endianness : Big
Codec ID : A_AC3
Duration : 45 min 42 s
Bit rate mode : Constant
Bit rate : 448 kb/s
Channel(s) : 6 channels
Channel positions : Front: L C R, Side: L R, LFE
Sampling rate : 48.0 kHz
Frame rate : 31.250 FPS (1536 SPF)
Bit depth : 16 bits
Compression mode : Lossy
Stream size : 146 MiB (18%)
Title : [Censor | AC3 Audio]
Language : Russian
Service kind : Complete Main
Default : Yes
Forced : No
Audio #2
ID : 3
Format : AC-3
Format/Info : Audio Coding 3
Format settings, Endianness : Big
Codec ID : A_AC3
Duration : 45 min 42 s
Bit rate mode : Constant
Bit rate : 448 kb/s
Channel(s) : 6 channels
Channel positions : Front: L C R, Side: L R, LFE
Sampling rate : 48.0 kHz
Frame rate : 31.250 FPS (1536 SPF)
Bit depth : 16 bits
Compression mode : Lossy
Stream size : 146 MiB (18%)
Title : / [18+ | AC3 Audio]
Language : Russian
Service kind : Complete Main
Default : No
Forced : No
Text
ID : 4
Format : UTF-8
Codec ID : S_TEXT/UTF8
Codec ID/Info : UTF-8 Plain Text
Duration : 43 min 23 s
Bit rate : 120 b/s
Count of elements : 758
Stream size : 38.2 KiB (0%)
Title : [Full]
Language : Russian
Default : No
Forced : No

Раздача ведётся путём добавления новых серий

Внимание! Раздача ведётся путём добавления новых серий; при каждом добавлении создаётся новый торрент.
Чтобы начать докачку новой серии, пользователям необходимо сделать следующее:
1. Остановить скачивание;
2. Удалить старый торрент у себя из клиента (старые серии удалять не надо);
3. Скачать новый торрент и запустить его у себя в клиенте вместо старого, при этом указать клиенту путь в старую папку куда и должно происходить скачивание новых серий. Ваш клиент при этом должен произвести хеширование (проверку) старой папки и будет докачивать только те серии, которых у вас ещё нет. Старые серии при этом не удаляются, а продолжают раздаваться! Eсли вы уже удалили старые серии, то предотвратить повторную закачку старых серий можно, отжав галочку в соответствующих местах при запуске нового торрента.
Релиз от:

Release was prepared by RG Files-x

[Profile] [PM]
Display posts:    
Reply to topic

Current time is: 27-Sep 23:17

All times are UTC + 3



You cannot post new topics in this forum
You cannot reply to topics in this forum
You cannot edit your posts in this forum
You cannot delete your posts in this forum
You cannot vote in polls in this forum
You cannot attach files in this forum
You cannot download files in this forum