Змей в Эссексе / The Essex Serpent [1-6 серии из 6] (2022) WEB-DLRip от Generalfilm | КПК | Apple TV+

Reply to topic
 
Author Message

mjjhec ®

Gender: Male

Longevity: 3 years 10 months

Posts: 1356

Location: СССР

Post 13-Aug-2022 16:08

[Quote]

Змей в Эссексе Год выпуска: 2022
Жанр: Драма, детектив
Выпущено: Великобритания, See-Saw Films
Режиссер: Клио Барнард
В ролях: Клер Дэйнс, Том Хиддлстон, Клеманс Поэзи, Фрэнк Диллэйн, Хейли Сквайрс, Дикси Эгерикс, Майкл Джибсон, Лили-Роуз Асландогду, Джамаэль Вестман, Райан Реффелл и др.
О фильме: История недавно овдовевшей Коры, которая переезжает из викторианского Лондона в небольшую деревню Олдвинтер в Эссексе, заинтригованная местным суеверием, что в данной местности вновь появилось мифическое существо, известное как Змея Эссекса.
Качество: WEB-DLRip | КПК
Видео: H.264, 640x360 (16:9), 23.976 fps, 400 kb/s
Аудио: AAC, 48 kHz, 2 ch, 128 kb/s
Продолжительность: 6 x ~00:50:00
Перевод: Дублированный [Apple TV+]

Скриншоты


MediaInfo

Complete name : F:\Rip\Zmej.by.mjjhec\The.Essex.Serpent.s01e03.mp4
Format : MPEG-4
Format profile : Base Media
Codec ID : isom (isom/avc1)
File size : 161 MiB
Duration : 42 min 22 s
Overall bit rate mode : Variable
Overall bit rate : 532 kb/s
Encoded date : UTC 2022-08-11 18:25:52
Tagged date : UTC 2022-08-11 18:25:52
Video
ID : 1
Format : AVC
Format/Info : Advanced Video Codec
Format profile : High@L4.1
Format settings : CABAC / 9 Ref Frames
Format settings, CABAC : Yes
Format settings, Reference : 9 frames
Codec ID : avc1
Codec ID/Info : Advanced Video Coding
Duration : 42 min 22 s
Bit rate : 400 kb/s
Maximum bit rate : 4 163 kb/s
Width : 640 pixels
Height : 360 pixels
Display aspect ratio : 16:9
Frame rate mode : Constant
Frame rate : 23.976 (24000/1001) FPS
Color space : YUV
Chroma subsampling : 4:2:0
Bit depth : 8 bits
Scan type : Progressive
Bits/(Pixel*Frame) : 0.072
Stream size : 121 MiB (75%)
Writing library : x264 core 125 r2208 d9d2288
Encoding settings : cabac=1 / ref=9 / deblock=1:-3:-3 / analyse=0x3:0x133 / me=umh / subme=11 / psy=1 / psy_rd=1.00:0.00 / mixed_ref=1 / me_range=32 / chroma_me=1 / trellis=2 / 8x8dct=1 / cqm=0 / deadzone=21,11 / fast_pskip=1 / chroma_qp_offset=-4 / threads=6 / lookahead_threads=1 / sliced_threads=0 / nr=0 / decimate=1 / interlaced=0 / bluray_compat=0 / constrained_intra=0 / bframes=9 / b_pyramid=2 / b_adapt=2 / b_bias=0 / direct=3 / weightb=1 / open_gop=0 / weightp=2 / keyint=240 / keyint_min=23 / scenecut=40 / intra_refresh=0 / rc_lookahead=40 / rc=2pass / mbtree=1 / bitrate=400 / ratetol=1.0 / qcomp=0.60 / qpmin=0 / qpmax=69 / qpstep=4 / cplxblur=20.0 / qblur=0.5 / vbv_maxrate=14000 / vbv_bufsize=14000 / nal_hrd=none / ip_ratio=1.40 / aq=1:1.00
Encoded date : UTC 2022-08-11 18:25:52
Tagged date : UTC 2022-08-11 18:25:56
Codec configuration box : avcC
Audio
ID : 2
Format : AAC LC
Format/Info : Advanced Audio Codec Low Complexity
Codec ID : mp4a-40-2
Duration : 42 min 22 s
Bit rate mode : Variable
Bit rate : 128 kb/s
Maximum bit rate : 136 kb/s
Channel(s) : 2 channels
Channel layout : L R
Sampling rate : 48.0 kHz
Frame rate : 46.875 FPS (1024 SPF)
Compression mode : Lossy
Stream size : 38.8 MiB (24%)
Encoded date : UTC 2022-08-11 18:25:55
Tagged date : UTC 2022-08-11 18:25:56
Релиз от:
[Profile] [PM]
Display posts:    
Reply to topic

Current time is: 27-Sep 22:49

All times are UTC + 3



You cannot post new topics in this forum
You cannot reply to topics in this forum
You cannot edit your posts in this forum
You cannot delete your posts in this forum
You cannot vote in polls in this forum
You cannot attach files in this forum
You cannot download files in this forum