Забытое чудо (2022) WEB-DLRip-AVC от Files-x

Reply to topic
 
Author Message

bond74 ®

Gender: Male

Longevity: 3 years 10 months

Posts: 1669

Post 19-Aug-2022 23:44

[Quote]

Забытое чудо
Год выпуска: 2022
Жанр: Мультфильм, приключения, фэнтези, полнометражный
Выпущено: Россия, Кинокомпания "ГПМ КИТ", "Паровоз"
Режиссер: Андрей Колпин
В ролях: Прохор Чеховской, Анна Хилькевич, Даниил Эльдаров, Владимир Войтюк, Диомид Виноградов, Степан Деревянкин, Сергей Сергеев, Антон Савенков, Светлана Новикова, Фёдор Парамонов
О фильме: Три школьника случайно находят волшебный портал в Свято-Троицкой Сергиевой Лавре и уносятся в прошлое. Теперь их цель — вернуться домой, а для этого надо пройти сквозь чудесный лес XIV века времен татаро-монгольского ига и Куликовской битвы. Помогать подросткам будет преподобный Сергий Радонежский.

Качество: WEB-DLRip-AVC
Видео: MPEG-4 AVC, 1936 Kбит/с, 720x400
Аудио: Русский (AC3, 6 ch, 384 Кбит/с)
Продолжительность: 01:22:34
Язык: Русский
Субтитры: Русские

Скриншоты




MediaInfo

Общее
Уникальный идентификатор : 335577968610226592255693301912318702950 (0xFC75F7417103ECFE90206115FE76F566)
Полное имя : C:\films\Забытое чудо.2022.WEB-DLRip.Files-x.mkv
Формат : Matroska
Версия формата : Version 4
Размер файла : 1,46 Гбайт
Продолжительность : 1 ч. 29 м.
Общий поток : 2 322 Кбит/сек
Дата кодирования : UTC 2022-08-19 19:46:27
Программа кодирования : mkvmerge v32.0.0 ('Astral Progressions') 64-bit
Библиотека кодирования : libebml v1.3.7 + libmatroska v1.5.0
Видео
Идентификатор : 1
Формат : AVC
Формат/Информация : Advanced Video Codec
Профиль формата : High@L4.1
Настройки формата : CABAC / 9 Ref Frames
Параметр CABAC формата : Да
Параметр RefFrames формата : 9 кадров
Идентификатор кодека : V_MPEG4/ISO/AVC
Продолжительность : 1 ч. 29 м.
Битрейт : 1 937 Кбит/сек
Ширина : 720 пикселей
Высота : 400 пикселей
Соотношение сторон : 16:9
Режим частоты кадров : Постоянный
Частота кадров : 24,000 кадра/сек
Цветовое пространство : YUV
Субдискретизация насыщенности : 4:2:0
Битовая глубина : 8 бит
Тип развёртки : Прогрессивная
Бит/(Пиксели*Кадры) : 0.280
Размер потока : 1,21 Гбайт (83%)
Библиотека кодирования : x264 core 146 r2538 121396c
Настройки программы : cabac=1 / ref=9 / deblock=1:-2:-1 / analyse=0x3:0x133 / me=umh / subme=9 / psy=1 / psy_rd=1.00:0.15 / mixed_ref=1 / me_range=32 / chroma_me=1 / trellis=2 / 8x8dct=1 / cqm=0 / deadzone=21,11 / fast_pskip=0 / chroma_qp_offset=-3 / threads=18 / lookahead_threads=3 / sliced_threads=0 / nr=0 / decimate=1 / interlaced=0 / bluray_compat=0 / constrained_intra=0 / bframes=9 / b_pyramid=2 / b_adapt=2 / b_bias=0 / direct=3 / weightb=1 / open_gop=0 / weightp=2 / keyint=250 / keyint_min=23 / scenecut=40 / intra_refresh=0 / rc=2pass / mbtree=0 / bitrate=1937 / ratetol=1.0 / qcomp=0.60 / qpmin=0 / qpmax=69 / qpstep=4 / cplxblur=20.0 / qblur=0.5 / ip_ratio=1.40 / pb_ratio=1.30 / aq=2:1.00
Default : Да
Forced : Нет
Цветовой диапазон : Limited
Основные цвета : BT.709
Характеристики трансфера : BT.709
Коэффициенты матрицы : BT.709
Аудио
Идентификатор : 2
Формат : AC-3
Формат/Информация : Audio Coding 3
Коммерческое название : Dolby Digital
Идентификатор кодека : A_AC3
Продолжительность : 1 ч. 29 м.
Вид битрейта : Постоянный
Битрейт : 384 Кбит/сек
Каналы : 6 каналов
Channel layout : L R C LFE Ls Rs
Частота : 48,0 КГц
Частота кадров : 31,250 кадров/сек (1536 SPF)
Метод сжатия : С потерями
Размер потока : 247 Мбайт (17%)
Service kind : Complete Main
Default : Да
Forced : Нет
Текст
Идентификатор : 3
Формат : UTF-8
Идентификатор кодека : S_TEXT/UTF8
Идентификатор кодека/Информация : UTF-8 Plain Text
Продолжительность : 1 ч. 26 м.
Битрейт : 95 бит/сек
Частота кадров : 0,281 кадр/сек
Count of elements : 1453
Размер потока : 60,7 Кбайт (0%)
Default : Да
Forced : Нет
Релиз от:

Release was prepared by RG Files-x

[Profile] [PM]
Display posts:    
Reply to topic

Current time is: 28-Sep 00:56

All times are UTC + 3



You cannot post new topics in this forum
You cannot reply to topics in this forum
You cannot edit your posts in this forum
You cannot delete your posts in this forum
You cannot vote in polls in this forum
You cannot attach files in this forum
You cannot download files in this forum