Жизнь по вызову [1-6 серия из 10] (2022) WEBRip-AVC от Files-x

Reply to topic
 
Author Message

Серый1779 ®

Gender: Male

Longevity: 3 years 10 months

Posts: 2557

Location: Украина

Post 26-Aug-2022 00:25

[Quote]

Жизнь по вызову Год выпуска: 2022
Жанр: Драма
Выпущено: Россия, Кинокомпания ООО «К.Б.А.» по заказу ООО «МТС Медиа»
Режиссер: Сарик Андреасян
В ролях: Павел Прилучный, Наталья Рудова, Олег Каменщиков, Виктория Богатырёва, Владимир Сычёв, Михаил Горевой, Кирилл Жандаров, Александр Яцко, Анна Чурина, Никита Кологривый, Сергей Комаров, Янина Студилина, Лиза Моряк, Алексей Кирсанов, Михаил Богдасаров, Максим Щёголев, Полина Максимова, Алексей Гаврилов, Маргарита Шабардыгина, Евгения Ярушникова, Кристина Малай, Марина Дмитриева, Зифа Ялчигулова, Василина Юсковец, Виктор Цекало, Валентина Муравская, Эллина Бандеева, Эмиль Киракосян, Ирина Спиридонова, Айтэч Ашхамахов, Юлия Макарова, Антон Богдасаров, Валерий Зинов, Антон Полетаев, Евгения Макарова, Михаил Зубарев, Олег Толстенко, Андрей Злобин, Антон Харужный, Владимир Башкиров
О фильме: Александр Шмидт - хозяин элитного эскорт-агентства. Его называют Мэджик - он и его команда способны выполнить практически любое желание Агентство Мэджика на вершине успеха. Среди клиентов уважаемые люди: бизнесмены, политики, силовики, общественные деятели. Команда - в лице бывшего бандита по кличке Рыбак и секретаря Галины Михайловны - исполняет любые капризы клиентов. Но внезапно сказка заканчивается: на Мэджика и его бизнес объявлена охота. В один миг он может потерять все - репутацию, бизнес, семью и даже жизнь. У него есть немного времени, чтобы разобраться, кто стоит за этой атакой, и нанести удар первым.
Качество: WEBRip-AVC
Видео: MPEG-4 AVC, ~ 1600 Кбит/с, 1024x432, 25 кадр/с
Аудио №1: AC3, 2 ch, 192 Кбит/с | С цензурой
Аудио №2: AC3, 2 ch, 192 Кбит/с | Без цензуры (18+) | [Присутствует ненормативная лексика]
Продолжительность: 6 х ~ 00:34:43
Перевод: Не требуется
Субтитры: Нет

Скриншоты



MediaInfo

General
Unique ID : 322015810034033537741960751388357242135 (0xF241FD3661FF41DCA29841FCB7932D17)
Complete name : F:\Жизнь по вызову.(2022).WEBRip.(AVC).Files-x\01.Жизнь по вызову.(2022).WEBRip.(AVC).by.Серый1779.Files-x.mkv
Format : Matroska
Format version : Version 4 / Version 2
File size : 474 MiB
Duration : 33 min 43 s
Overall bit rate : 1 964 kb/s
Encoded date : UTC 2022-08-25 19:16:43
Writing application : mkvmerge v32.0.0 ('Astral Progressions') 64-bit
Writing library : libebml v1.3.7 + libmatroska v1.5.0
Video
ID : 1
Format : AVC
Format/Info : Advanced Video Codec
Format profile : High@L4.1
Format settings : CABAC / 9 Ref Frames
Format settings, CABAC : Yes
Format settings, RefFrames : 9 frames
Codec ID : V_MPEG4/ISO/AVC
Duration : 33 min 43 s
Bit rate : 1 600 kb/s
Width : 1 024 pixels
Height : 432 pixels
Display aspect ratio : 2.40:1
Frame rate mode : Constant
Frame rate : 25.000 FPS
Color space : YUV
Chroma subsampling : 4:2:0
Bit depth : 8 bits
Scan type : Progressive
Bits/(Pixel*Frame) : 0.145
Stream size : 381 MiB (80%)
Writing library : x264 core 146 r2538 121396c
Encoding settings : cabac=1 / ref=9 / deblock=1:-2:-1 / analyse=0x3:0x133 / me=umh / subme=9 / psy=1 / psy_rd=1.00:0.15 / mixed_ref=1 / me_range=32 / chroma_me=1 / trellis=2 / 8x8dct=1 / cqm=0 / deadzone=21,11 / fast_pskip=0 / chroma_qp_offset=-3 / threads=18 / lookahead_threads=3 / sliced_threads=0 / nr=0 / decimate=1 / interlaced=0 / bluray_compat=0 / constrained_intra=0 / bframes=9 / b_pyramid=2 / b_adapt=2 / b_bias=0 / direct=1 / weightb=1 / open_gop=0 / weightp=2 / keyint=250 / keyint_min=25 / scenecut=40 / intra_refresh=0 / rc=2pass / mbtree=0 / bitrate=1600 / ratetol=1.0 / qcomp=0.60 / qpmin=0 / qpmax=69 / qpstep=4 / cplxblur=20.0 / qblur=0.5 / ip_ratio=1.40 / pb_ratio=1.30 / aq=2:1.00
Default : Yes
Forced : No
Color range : Limited
Color primaries : BT.709
Transfer characteristics : BT.709
Matrix coefficients : BT.709
Audio #1
ID : 2
Format : AC-3
Format/Info : Audio Coding 3
Format settings, Endianness : Big
Codec ID : A_AC3
Duration : 33 min 43 s
Bit rate mode : Constant
Bit rate : 192 kb/s
Channel(s) : 2 channels
Channel positions : Front: L R
Sampling rate : 48.0 kHz
Frame rate : 31.250 FPS (1536 SPF)
Bit depth : 16 bits
Compression mode : Lossy
Stream size : 46.3 MiB (10%)
Service kind : Complete Main
Default : Yes
Forced : No
Audio #2
ID : 3
Format : AC-3
Format/Info : Audio Coding 3
Format settings, Endianness : Big
Codec ID : A_AC3
Duration : 33 min 43 s
Bit rate mode : Constant
Bit rate : 192 kb/s
Channel(s) : 2 channels
Channel positions : Front: L R
Sampling rate : 48.0 kHz
Frame rate : 31.250 FPS (1536 SPF)
Bit depth : 16 bits
Compression mode : Lossy
Stream size : 46.3 MiB (10%)
Service kind : Complete Main
Default : No
Forced : No

Раздача ведётся путём добавления новых серий

Внимание! Раздача ведётся путём добавления новых серий; при каждом добавлении создаётся новый торрент.
Чтобы начать докачку новой серии, пользователям необходимо сделать следующее:
1. Остановить скачивание;
2. Удалить старый торрент у себя из клиента (старые серии удалять не надо);
3. Скачать новый торрент и запустить его у себя в клиенте вместо старого, при этом указать клиенту путь в старую папку куда и должно происходить скачивание новых серий. Ваш клиент при этом должен произвести хеширование (проверку) старой папки и будет докачивать только те серии, которых у вас ещё нет. Старые серии при этом не удаляются, а продолжают раздаваться! Eсли вы уже удалили старые серии, то предотвратить повторную закачку старых серий можно, отжав галочку в соответствующих местах при запуске нового торрента.
Релиз от:

Release was prepared by RG Files-x

[Profile] [PM]
Display posts:    
Reply to topic

Current time is: 28-Sep 00:56

All times are UTC + 3



You cannot post new topics in this forum
You cannot reply to topics in this forum
You cannot edit your posts in this forum
You cannot delete your posts in this forum
You cannot vote in polls in this forum
You cannot attach files in this forum
You cannot download files in this forum