Звёзды в Африке. Битва сезонов [3 сезон: 1-3 выпуск из 14] (2022) WEBRip 720p от Files-x

Reply to topic
 
Author Message

papa1951deda ®

Gender: Male

Longevity: 3 years 10 months

Posts: 1477

Location: Казахстан

Post 12-Sep-2022 17:19

[Quote]

Звёзды в Африке. Битва сезонов Год выпуска: 2022
Жанр: ТВ-шоу, реалити-шоу
Выпущено: Россия
Ведущий: Ольга Бузова, Михаил Галустян
В ролях: Алёна Водонаева, Карина Кросс, Валя Карнавал, Наталья Рудова, Анатолий Цой, Анна Покров, Роман Юнусов, Максим Лагашкин, Вячеслав Чепуренко
Описание: В третьем сезоне экстремально-приключенческого проекта встретятся участники первых двух сезонов. Вики Одинцова и Стас Ярушин смогут пылко обсудить накопившиеся взаимные вопросы, а конфликт Олега Верещагина и Саши Стоуна может дойти даже до драки. Кроме того, в битве сезонов «Звёзд в Африке» примут участие Светлана Пермякова, Карина Кросс, Владимир Сычёв, Каролина Севастьянова, Роза Сябитова и Вячеслав Малафеев. А по ходу сезона к уже знакомым участникам примкнут звёзды, дебютирующие в африканском шоу ТНТ. Участникам всё так же придется жить на берегу реки Лимпопо и бороться за еду на испытаниях, которые для них подготовили ведущие Миша Галустян и Ольга Бузова. Каждое испытание – проверка на прочность и встреча со своими страхами в экстремальных условиях, но всегда можно остановить задание, крикнув: «Я звезда, заберите меня отсюда!»
Качество: WEBRip 720p
Видео: MPEG-4 AVC, ~ 3606 Кбит/с, 1280x720
Аудио: AC3, 2 ch, 192 Кбит/с
Продолжительность: 1 x ~ 01:32:23
Перевод: Не требуется
Субтитры: Нет

Скриншоты



MediaInfo

Общее
Уникальный идентификатор : 224557604448824570021780831632291814088 (0xA8F038B1EA8B334BBA95986F2B985AC8)
Полное имя : C:\films\Новая Битва экстрасенсов.s01.2022.WEB-DL 720p.Files-x\01. Новая Битва экстрасенсов.s01.2022.WEB-DL 720p.Files-x.mkv
Формат : Matroska
Версия формата : Version 2
Размер файла : 3,27 Гбайт
Продолжительность : 1 ч. 30 м.
Режим общего битрейта : Переменный
Общий поток : 5 183 Кбит/сек
Дата кодирования : UTC 2022-09-11 14:43:16
Программа кодирования : mkvmerge v7.8.0 ('River Man') 32bit built on Apr 3 2015 12:11:22
Библиотека кодирования : libebml v1.3.1 + libmatroska v1.4.2
Видео
Идентификатор : 1
Формат : AVC
Формат/Информация : Advanced Video Codec
Профиль формата : High@L4.1
Настройки формата : CABAC / 1 Ref Frames
Параметр CABAC формата : Да
Параметр RefFrames формата : 1 кадр
Параметр GOP формата : M=1, N=50
Идентификатор кодека : V_MPEG4/ISO/AVC
Продолжительность : 1 ч. 30 м.
Вид битрейта : Переменный
Битрейт : 4 888 Кбит/сек
Максимальный битрейт : 5 000 Кбит/сек
Ширина : 1 280 пикселей
Высота : 720 пикселей
Соотношение сторон : 16:9
Режим частоты кадров : Постоянный
Частота кадров : 25,000 кадров/сек
Цветовое пространство : YUV
Субдискретизация насыщенности : 4:2:0
Битовая глубина : 8 бит
Тип развёртки : Прогрессивная
Бит/(Пиксели*Кадры) : 0.212
Размер потока : 3,08 Гбайт (94%)
Default : Да
Forced : Нет
Цветовой диапазон : Limited
Основные цвета : BT.709
Характеристики трансфера : BT.709
Коэффициенты матрицы : BT.709
Аудио
Идентификатор : 2
Формат : AC-3
Формат/Информация : Audio Coding 3
Коммерческое название : Dolby Digital
Идентификатор кодека : A_AC3
Продолжительность : 1 ч. 30 м.
Вид битрейта : Постоянный
Битрейт : 192 Кбит/сек
Каналы : 2 канала
Channel layout : L R
Частота : 44,1 КГц
Частота кадров : 28,711 кадров/сек (1536 SPF)
Метод сжатия : С потерями
Размер потока : 124 Мбайт (4%)
Service kind : Complete Main
Default : Да
Forced : Нет

Внимание! Раздача ведётся путём добавления новых серий

Раздача ведётся путём добавления новых серий, при каждом добавлении создаётся новый торрент. Чтобы начать докачку новой серии, пользователям необходимо сделать следующее:
- Остановить скачивание.
- Удалить старый торрент у себя из клиента (старые серии удалять не надо).
- Скачать новый торрент и запустить его у себя в клиенте вместо старого, при этом указать клиенту путь в старую папку куда и должно происходить скачивание новых серий.
Ваш клиент при этом должен произвести хеширование (проверку) старой папки (если не производит сам - помогите ему сделать это), и будет докачивать только те серии которых у вас ещё нет. Старые серии при этом не удаляются, а продолжают раздаваться!
Релиз от:

Release was prepared by RG Files-x

[Profile] [PM]
Display posts:    
Reply to topic

Current time is: 29-Sep 04:04

All times are UTC + 3



You cannot post new topics in this forum
You cannot reply to topics in this forum
You cannot edit your posts in this forum
You cannot delete your posts in this forum
You cannot vote in polls in this forum
You cannot attach files in this forum
You cannot download files in this forum