Не твое дело [1 сезон: 1-4 серия из 4] (2021) HDTV 1080p от R.G.Generalfilm

Reply to topic
 
Author Message

White Smoke ®

Gender: Male

Longevity: 3 years 10 months

Posts: 247

Post 13-Sep-2022 18:33

[Quote]

Не твое дело Год выпуска: 2021
Жанр: Мелодрама
Выпущено: Россия, Кинокомпания ООО "Телекомпания ШТРИХКОД"
Режиссер: Евгений Баранов
В ролях:Марина Митрофанова, Кирилл Каганович, Михаил Пшеничный, Ксения Лукьянчикова, Александр Соколовский, Эвелина Блёданс, Татьяна Черкасова, Леонид Громов, Евгений Пеккер, Виктор Логинов, Андрей Аверков, Наташа Калашник, Ольга Берёзкина, Ирина Вилкова, Людмила Чиркова, Валерия Рыбина, Валерия Островская, Евгений Пуцыло, Алексей Овсянников, Сергей Шарифуллин, Владимир Фоков, Анна Ичетовкина, Александр Чернов
О фильме: Надя без памяти влюбляется в Виктора. Она выходит за него замуж и считает себя абсолютно счастливой, несмотря на то, что мать не одобряет её выбор. Но вскоре она с ужасом осознает, как сильно ошибалась. Муж оказывается жестоким тираном. Избитая и напуганная, Надя сначала винит себя, потом с трудом разводится и долго восстанавливается, прежде чем вернуться к нормальной жизни. Но однажды Виктор попадает в беду и сам оказывается в роли жертвы. Надя может помочь бывшему мужу. Родные и близкие умоляют её не вмешиваться – это не её дело! Быть может, сама судьба покарала его за все, что он делал? Но способна ли Надя остаться в стороне?
Качество: HDTV 1080p
Видео: MPEG-4 AVC, 1920x1080 (16:9), 25.000 fps, 8 359 kb/s (0.161 bit/pixel)
Аудио: AC3, 48.0 kHz, 2 ch, 192 kb/s
Продолжительность: 02:59:44
Перевод : Не требуется
Субтитры: нет

MediaInfo

General
Unique ID : 231218983607157421362287259953558481955 (0xADF3280B66E8F0B5BE7F086F47946C23)
Complete name : D:\Запись ТВ\Ne tvoe delo.2021.HDTV 1080p.by.White Smoke.R.G.Generalfilm.mkv
Format : Matroska
Format version : Version 4
File size : 10.7 GiB
Duration : 2 h 59 min
Overall bit rate mode : Constant
Overall bit rate : 8 539 kb/s
Encoded date : UTC 2022-09-13 14:47:12
Writing application : mkvmerge v6.8.0 ('Theme for Great Cities') 64bit built on Mar 2 2014 21:34:26
Writing library : libebml v1.3.0 + libmatroska v1.4.1
Video
ID : 1
Format : AVC
Format/Info : Advanced Video Codec
Format profile : High@L4.1
Format settings : CABAC / 4 Ref Frames
Format settings, CABAC : Yes
Format settings, Reference frames : 4 frames
Format settings, GOP : M=3, N=33
Codec ID : V_MPEG4/ISO/AVC
Duration : 2 h 59 min
Bit rate mode : Constant
Bit rate : 8 359 kb/s
Width : 1 920 pixels
Height : 1 080 pixels
Display aspect ratio : 16:9
Frame rate mode : Constant
Frame rate : 25.000 FPS
Standard : PAL
Color space : YUV
Chroma subsampling : 4:2:0
Bit depth : 8 bits
Scan type : Progressive
Bits/(Pixel*Frame) : 0.161
Stream size : 10.3 GiB (96%)
Default : Yes
Forced : No
Color range : Limited
Color primaries : BT.709
Transfer characteristics : BT.709
Matrix coefficients : BT.709
Audio
ID : 2
Format : AC-3
Format/Info : Audio Coding 3
Commercial name : Dolby Digital
Codec ID : A_AC3
Duration : 2 h 59 min
Bit rate mode : Constant
Bit rate : 192 kb/s
Channel(s) : 2 channels
Channel layout : L R
Sampling rate : 48.0 kHz
Frame rate : 31.250 FPS (1536 SPF)
Compression mode : Lossy
Stream size : 247 MiB (2%)
Service kind : Complete Main
Default : Yes
Forced : No
Огромное спасибо пользователю HardwareMining за помощь в подготовке данной раздачи Релиз от:
[Profile] [PM]
Display posts:    
Reply to topic

Current time is: 28-Sep 00:09

All times are UTC + 3



You cannot post new topics in this forum
You cannot reply to topics in this forum
You cannot edit your posts in this forum
You cannot delete your posts in this forum
You cannot vote in polls in this forum
You cannot attach files in this forum
You cannot download files in this forum