Ворона. Тень справедливости [2 сезон: 1-12 серия из 12] (2022) WEB-DLRip-AVC от Files-x

Reply to topic
 
Author Message

Серый1779 ®

Gender: Male

Longevity: 4 years

Posts: 2696

Location: Украина

Post 14-Sep-2022 11:48

[Quote]

Ворона. Тень справедливости
Год выпуска: 2022
Жанр: Детектив, триллер
Выпущено: Россия, Кинокомпания "Мармот-Фильм"
Режиссер: Алёна Михайлова
В ролях: Елизавета Боярская, Анатолий Белый, Сергей Колос, Владимир Колганов, Алексей Матошин, Михаил Евланов, Александр Ратников, Геннадий Смирнов, Андрей Васильев, Сергей Козик, Валерия Ледовских, Хельга Филиппова, Степан Пивкин, Кира Кауфман, Игорь Папылев, Елена Осипова, Алиса Панина, Александр Тарханов, Александр Блинкин, Никита Крахмалёв, Никита Касьяненко, Диана Майорова, Алексей Дедоборщ, Сергей Сафронов, Вячеслав Харчёв, Степан Гвоздиков, Алексей Петлюра, Артём Цыпин
О фильме: Продолжение детективного сериала, рассказывающего историю следователя Анны Воронцовой, или, как прозвали ее коллеги в следственном комитете, Вороны. В новом сезоне Анне предстоит от простых частных дел прийти к расследованию сложного, масштабного преступления. Ее профессионализм, принципиальность, а также помощь напарника Сергея Кабанова, помогут ей противостоять неизвестному, который, убивая людей, хочет вовлечь ее в свою борьбу за справедливость.

Качество: WEB-DLRip-AVC
Видео: MPEG-4 AVC, ~ 1600 Кбит/с, 1024x512, 25 кадр/с
Аудио: AC3, 6 ch, 384 Кбит/с
Продолжительность: 12 x ~ 00:50:42
Перевод: Не требуется
Субтитры: Нет

Скриншоты



MediaInfo

General
Unique ID : 151711628459562271815857381077447052388 (0x722298C8F25610FEFB14BEAF1B1B8C64)
Complete name : F:\Ворона. Тень справедливости.S02.(2022).WEB-DLRip.(AVC).Files-x\01.Ворона. Тень справедливости.S02.(2022).WEB-DLRip.(AVC).by.Серый1779.Files-x.mkv
Format : Matroska
Format version : Version 4 / Version 2
File size : 720 MiB
Duration : 50 min 42 s
Overall bit rate : 1 985 kb/s
Movie name : Vorona.S02.E01.2022.WEB-DL.1080p
Encoded date : UTC 2022-09-14 07:03:51
Writing application : mkvmerge v32.0.0 ('Astral Progressions') 64-bit
Writing library : libebml v1.3.7 + libmatroska v1.5.0
Attachments : poster.jpg
Video
ID : 1
Format : AVC
Format/Info : Advanced Video Codec
Format profile : High@L4.1
Format settings : CABAC / 9 Ref Frames
Format settings, CABAC : Yes
Format settings, RefFrames : 9 frames
Codec ID : V_MPEG4/ISO/AVC
Duration : 50 min 42 s
Bit rate : 1 600 kb/s
Width : 1 024 pixels
Height : 512 pixels
Display aspect ratio : 2.000
Frame rate mode : Constant
Frame rate : 25.000 FPS
Color space : YUV
Chroma subsampling : 4:2:0
Bit depth : 8 bits
Scan type : Progressive
Bits/(Pixel*Frame) : 0.122
Stream size : 580 MiB (81%)
Writing library : x264 core 146 r2538 121396c
Encoding settings : cabac=1 / ref=9 / deblock=1:-2:-1 / analyse=0x3:0x133 / me=umh / subme=9 / psy=1 / psy_rd=1.00:0.15 / mixed_ref=1 / me_range=32 / chroma_me=1 / trellis=2 / 8x8dct=1 / cqm=0 / deadzone=21,11 / fast_pskip=0 / chroma_qp_offset=-3 / threads=18 / lookahead_threads=3 / sliced_threads=0 / nr=0 / decimate=1 / interlaced=0 / bluray_compat=0 / constrained_intra=0 / bframes=9 / b_pyramid=2 / b_adapt=2 / b_bias=0 / direct=1 / weightb=1 / open_gop=0 / weightp=2 / keyint=250 / keyint_min=25 / scenecut=40 / intra_refresh=0 / rc=2pass / mbtree=0 / bitrate=1600 / ratetol=1.0 / qcomp=0.60 / qpmin=0 / qpmax=69 / qpstep=4 / cplxblur=20.0 / qblur=0.5 / ip_ratio=1.40 / pb_ratio=1.30 / aq=2:1.00
Default : Yes
Forced : No
Color range : Limited
Color primaries : BT.709
Transfer characteristics : BT.709
Matrix coefficients : BT.709
Audio
ID : 2
Format : AC-3
Format/Info : Audio Coding 3
Format settings, Endianness : Big
Codec ID : A_AC3
Duration : 50 min 42 s
Bit rate mode : Constant
Bit rate : 384 kb/s
Channel(s) : 6 channels
Channel positions : Front: L C R, Side: L R, LFE
Sampling rate : 48.0 kHz
Frame rate : 31.250 FPS (1536 SPF)
Bit depth : 16 bits
Compression mode : Lossy
Stream size : 139 MiB (19%)
Title : [Original | AC3 Audio]
Language : Russian
Service kind : Complete Main
Default : Yes
Forced : No
Релиз от:

Release was prepared by RG Files-x

[Profile] [PM]
Display posts:    
Reply to topic

Current time is: 05-Dec 03:54

All times are UTC + 3



You cannot post new topics in this forum
You cannot reply to topics in this forum
You cannot edit your posts in this forum
You cannot delete your posts in this forum
You cannot vote in polls in this forum
You cannot attach files in this forum
You cannot download files in this forum