Мадагаскар / Madagascar / Трилогия / Trilogy (2005, 2008, 2012) BDRip-AVC | Лицензия

Reply to topic
 
Author Message

HardwareMining ®

Gender: Male

Longevity: 2 years 11 months

Posts: 257

Post 15-Sep-2022 16:30

[Quote]

Мадагаскар / Madagascar / Трилогия / Trilogy

Мадагаскар / Madagascar - 2005

Мадагаскар / Madagascar
«Они не были рождены в дикой местности... Их перевезли туда...»
Год выпуска: 2005
Жанр: мультфильм, комедия, приключения, семейный
Выпущено: США | DreamWorks Animation
Режиссеры: Эрик Дарнелл, Том МакГрат
В ролях: Бен Стиллер, Крис Рок, Дэвид Швиммер, Джада Пинкетт Смит, Саша Барон Коэн, Седрик «Развлекатель», Энди Рихтер, Том МакГрат, Кристофер Найтс, Крис Миллер
О фильме:
Четверо изнеженных животных из Центрального зоопарка в Нью-Йорке - лев Алекс, зебра Марти, жираф Мелман и гиппопотамиха Глория - решаются на побег. Оказавшись после кораблекрушения на экзотическом острове Мадагаскар, населенном лемурами и поедающими их фоссами, путешественники с ужасом понимают, что с городскими привычками им придется распрощаться.
Здесь нет людей, любимых клеток, вкусной кормежки. Начинается шоу «Последний герой» только с животными - нашим друзьям нужно выжить в непривычной среде обитания, где на каждом шагу подстерегает опасность...

Качество: BDRip-AVC
Видео: AVC, 1024x576 (16:9), 23,976 fps, 1902 Kbit/s (0.134 bit/pixel)
Аудио: русский, AC3, 5.1, 48 kHz, 448 kbps CBR
Продолжительность: 01:25:57
Перевод: Дублированный | Лицензия
Субтитры: Отсутствуют

Скриншоты

MediaInfo

Общее
Уникальный идентификатор : 223482204335494208977638189365876268487 (0xA8211B6034C6FF37AE5392EED1209DC7)
Полное имя : G:\GF\Madagascar - Trilogy\Madagascar.2005.BDRip.AVC.Rip.by.HardwareMining.R.G.Generalfilm.mkv
Формат : Matroska
Версия формата : Version 4
Размер файла : 1,41 Гбайт
Продолжительность : 1 ч. 25 м.
Общий поток : 2 354 Кбит/сек
Название фильма : Madagascar.2005.BDRip.AVC.Rip.by.HardwareMining.R.G.Generalfilm
Дата кодирования : UTC 2022-09-13 15:30:07
Программа кодирования : mkvmerge v6.8.0 ('Theme for Great Cities') 64bit built on Mar 2 2014 21:34:26
Библиотека кодирования : libebml v1.3.0 + libmatroska v1.4.1
Обложка : Yes
Attachments : cover0.png
Видео
Идентификатор : 1
Формат : AVC
Формат/Информация : Advanced Video Codec
Профиль формата : High@L4.1
Настройки формата : CABAC / 10 Ref Frames
Параметр CABAC формата : Да
Параметр RefFrames формата : 10 кадров
Идентификатор кодека : V_MPEG4/ISO/AVC
Продолжительность : 1 ч. 25 м.
Битрейт : 1 902 Кбит/сек
Ширина : 1 024 пикселя
Высота : 576 пикселей
Соотношение сторон : 16:9
Режим частоты кадров : Постоянный
Частота кадров : 23,976 кадра/сек
Цветовое пространство : YUV
Субдискретизация насыщенности : 4:2:0
Битовая глубина : 8 бит
Тип развёртки : Прогрессивная
Бит/(Пиксели*Кадры) : 0.134
Размер потока : 1,12 Гбайт (79%)
Библиотека кодирования : x264 core 130 r2273 b3065e6
Настройки программы : cabac=1 / ref=10 / deblock=1:-2:-1 / analyse=0x3:0x133 / me=umh / subme=9 / psy=1 / psy_rd=1.00:0.08 / mixed_ref=1 / me_range=32 / chroma_me=1 / trellis=2 / 8x8dct=1 / cqm=0 / deadzone=21,11 / fast_pskip=0 / chroma_qp_offset=-3 / threads=6 / lookahead_threads=1 / sliced_threads=0 / nr=0 / decimate=1 / interlaced=0 / bluray_compat=0 / constrained_intra=0 / bframes=10 / b_pyramid=2 / b_adapt=2 / b_bias=0 / direct=3 / weightb=1 / open_gop=0 / weightp=2 / keyint=240 / keyint_min=23 / scenecut=40 / intra_refresh=0 / rc=2pass / mbtree=0 / bitrate=1902 / ratetol=1.0 / qcomp=0.60 / qpmin=0 / qpmax=69 / qpstep=4 / cplxblur=20.0 / qblur=0.5 / ip_ratio=1.40 / pb_ratio=1.30 / aq=2:1.00
Язык : English
Default : Да
Forced : Нет
Цветовой диапазон : Limited
Основные цвета : BT.709
Характеристики трансфера : BT.709
Коэффициенты матрицы : BT.709
Аудио
Идентификатор : 2
Формат : AC-3
Формат/Информация : Audio Coding 3
Коммерческое название : Dolby Digital
Идентификатор кодека : A_AC3
Продолжительность : 1 ч. 25 м.
Вид битрейта : Постоянный
Битрейт : 448 Кбит/сек
Каналы : 5 каналов
Channel layout : L R C Ls Rs
Частота : 48,0 КГц
Частота кадров : 31,250 кадров/сек (1536 SPF)
Метод сжатия : С потерями
Размер потока : 275 Мбайт (19%)
Заголовок : Dub | Лицензия
Язык : Russian
Service kind : Complete Main
Default : Да
Forced : Нет
Меню
00:00:00.000 : en:(01)00:00:00:000
00:05:34.167 : en:(02)00:05:34:167
00:08:35.473 : en:(03)00:08:35:473
00:12:40.092 : en:(04)00:12:40:092
00:17:56.867 : en:(05)00:17:56:867
00:22:32.684 : en:(06)00:22:32:684
00:26:56.615 : en:(07)00:26:56:615
00:30:57.856 : en:(08)00:30:57:856
00:35:30.878 : en:(09)00:35:30:878
00:40:06.570 : en:(10)00:40:06:570
00:44:34.797 : en:(11)00:44:34:797
00:48:52.346 : en:(12)00:48:52:346
00:52:18.844 : en:(13)00:52:18:844
00:57:15.557 : en:(14)00:57:15:557
01:02:16.733 : en:(15)01:02:16:733
01:06:56.554 : en:(16)01:06:56:554
01:12:37.102 : en:(17)01:12:37:102
01:16:20.117 : en:(18)01:16:20:117
01:18:18.652 : en:(19)01:18:18:652
01:19:10.036 : en:(20)01:19:10:036
01:25:57.861 : en:(21)01:25:57:861

Мадагаскар 2 / Madagascar: Escape 2 Africa - 2008

Мадагаскар 2 / Madagascar: Escape 2 Africa
«Осторожно, звери возвращаются!»
Год выпуска: 2008
Жанр: мультфильм, комедия, приключения, семейный
Выпущено: США | DreamWorks Animation
Режиссерs: Эрик Дарнелл, Том МакГрат
В ролях: Бен Стиллер, Крис Рок, Дэвид Швиммер, Джада Пинкетт Смит, Саша Барон Коэн, Седрик «Развлекатель», Энди Рихтер, Берни Мак, Алек Болдуин, Шерри Шеперд
О фильме:
Полная опасностей жизнь на Мадагаскаре не оправдала ожиданий привыкших к комфорту Нью-Йоркского зоопарка животных - льва Алекса, зебры Марти, жирафа Мелмана и бегемотихи Глории - и друзья решают сбежать с острова. По случайности, всю компанию заносит в Африку, где Алекс встречает свою семью, с которой он был разлучен в детстве. Неожиданно для себя Алекс понимает, что после жизни в зоопарке у него гораздо меньше общего с родственниками, чем ему хотелось бы...

Качество: BDRip-AVC
Видео: AVC, 1024x576 (16:9), 23,976 fps, 2593 Kbit/s (0.183 bit/pixel)
Аудио: русский, AC3, 5.1, 48 kHz, 448 kbps CBR
Продолжительность: 01:29:23
Перевод: Дублированный | Лицензия
Субтитры: Отсутствуют

Скриншоты

MediaInfo

Общее
Уникальный идентификатор : 221332780797772854033791220780798266905 (0xA683249D0B1EC032BACCBC13B4074E19)
Полное имя : G:\GF\Madagascar - Trilogy\Madagascar.Escape 2 Africa.2008.BDRip.AVC.Rip.by.HardwareMining.R.G.Generalfilm.mkv
Формат : Matroska
Версия формата : Version 4
Размер файла : 1,90 Гбайт
Продолжительность : 1 ч. 29 м.
Общий поток : 3 039 Кбит/сек
Название фильма : Madagascar.Escape 2 Africa.2008.BDRip.AVC.Rip.by.HardwareMining.R.G.Generalfilm
Дата кодирования : UTC 2022-09-14 12:33:10
Программа кодирования : mkvmerge v6.8.0 ('Theme for Great Cities') 64bit built on Mar 2 2014 21:34:26
Библиотека кодирования : libebml v1.3.0 + libmatroska v1.4.1
Обложка : Yes
Attachments : cover2.jpg
Видео
Идентификатор : 1
Формат : AVC
Формат/Информация : Advanced Video Codec
Профиль формата : High@L4.1
Настройки формата : CABAC / 9 Ref Frames
Параметр CABAC формата : Да
Параметр RefFrames формата : 9 кадров
Идентификатор кодека : V_MPEG4/ISO/AVC
Продолжительность : 1 ч. 29 м.
Битрейт : 2 593 Кбит/сек
Ширина : 1 024 пикселя
Высота : 576 пикселей
Соотношение сторон : 16:9
Режим частоты кадров : Постоянный
Частота кадров : 23,976 (24000/1001) кадра/сек
Цветовое пространство : YUV
Субдискретизация насыщенности : 4:2:0
Битовая глубина : 8 бит
Тип развёртки : Прогрессивная
Бит/(Пиксели*Кадры) : 0.183
Размер потока : 1,58 Гбайт (83%)
Библиотека кодирования : x264 core 148 r2638 7599210
Настройки программы : cabac=1 / ref=9 / deblock=1:-2:-1 / analyse=0x3:0x113 / me=umh / subme=10 / psy=1 / psy_rd=0.00:0.15 / mixed_ref=1 / me_range=32 / chroma_me=1 / trellis=2 / 8x8dct=1 / cqm=0 / deadzone=21,11 / fast_pskip=0 / chroma_qp_offset=-3 / threads=6 / lookahead_threads=1 / sliced_threads=0 / nr=0 / decimate=0 / interlaced=0 / bluray_compat=0 / constrained_intra=0 / bframes=10 / b_pyramid=2 / b_adapt=2 / b_bias=0 / direct=1 / weightb=1 / open_gop=0 / weightp=2 / keyint=240 / keyint_min=23 / scenecut=40 / intra_refresh=0 / rc_lookahead=40 / rc=2pass / mbtree=0 / bitrate=2593 / ratetol=1.0 / qcomp=0.65 / qpmin=0 / qpmax=69 / qpstep=4 / cplxblur=20.0 / qblur=0.5 / vbv_maxrate=50000 / vbv_bufsize=65500 / nal_hrd=none / filler=0 / ip_ratio=1.40 / pb_ratio=1.30 / aq=1:2.00
Язык : English
Default : Да
Forced : Нет
Аудио
Идентификатор : 2
Формат : AC-3
Формат/Информация : Audio Coding 3
Коммерческое название : Dolby Digital
Идентификатор кодека : A_AC3
Продолжительность : 1 ч. 29 м.
Вид битрейта : Постоянный
Битрейт : 448 Кбит/сек
Каналы : 5 каналов
Channel layout : L R C Ls Rs
Частота : 48,0 КГц
Частота кадров : 31,250 кадров/сек (1536 SPF)
Метод сжатия : С потерями
Размер потока : 286 Мбайт (15%)
Заголовок : Dub | Лицензия
Язык : Russian
Service kind : Complete Main
Default : Да
Forced : Да
Меню
00:00:00.000 : en:(01)00:00:00:000
00:04:15.880 : en:(02)00:04:15:880
00:06:46.614 : en:(03)00:06:46:614
00:09:25.773 : en:(04)00:09:25:773
00:15:51.951 : en:(05)00:15:51:951
00:17:34.762 : en:(06)00:17:34:762
00:20:26.934 : en:(07)00:20:26:934
00:23:57.352 : en:(08)00:23:57:352
00:28:03.556 : en:(09)00:28:03:556
00:30:58.898 : en:(10)00:30:58:898
00:33:52.905 : en:(11)00:33:52:905
00:35:19.909 : en:(12)00:35:19:909
00:38:15.418 : en:(13)00:38:15:418
00:42:59.910 : en:(14)00:42:59:910
00:45:35.941 : en:(15)00:45:35:941
00:49:22.918 : en:(16)00:49:22:918
00:52:17.259 : en:(17)00:52:17:259
00:55:17.772 : en:(18)00:55:17:772
00:57:59.809 : en:(19)00:57:59:809
01:03:28.638 : en:(20)01:03:28:638
01:06:33.948 : en:(21)01:06:33:948
01:15:17.888 : en:(22)01:15:17:888
01:19:48.074 : en:(23)01:19:48:074
01:29:24.150 : en:(24)01:29:24:150

Мадагаскар 3 / Madagascar 3: Europe's Most Wanted - 2012

Мадагаскар 3 / Madagascar 3: Europe's Most Wanted
Год выпуска: 2012
Жанр: мультфильм, комедия, приключения, семейный
Выпущено: США | DreamWorks Animation
Режиссеры: Эрик Дарнелл, Том МакГрат, Конрад Вернон
В ролях: Бен Стиллер, Крис Рок, Дэвид Швиммер, Джада Пинкетт Смит, Саша Барон Коэн, Седрик «Развлекатель», Энди Рихтер, Том МакГрат, Фрэнсис МакДорманд, Джессика Честейн
О фильме:
Лев Алекс, зебра Марти, гиппопотамиха Глория и жираф Мелман, а также король Джулиан, Морис, Морт и Пингвины все еще пытаются вернуться в Нью-Йорк. На этот раз их путь пройдет через Европу, где они откроют свой цирк.

Качество: BDRip-AVC
Видео: AVC, 1024x576 (16:9), 23,976 fps, 2593 Kbit/s (0.183 bit/pixel)
Аудио: русский, AC3, 5.1, 48 kHz, 448 kbps CBR
Продолжительность: 01:33:24
Перевод: Дублированный | Лицензия
Субтитры: Отсутствуют

Скриншоты

MediaInfo

Общее
Уникальный идентификатор : 238704210675884419654744489572268584044 (0xB394C23B6BE90AE180504AD37B652C6C)
Полное имя : G:\GF\Madagascar - Trilogy\Madagascar.3.Europe's Most Wanted.2012.BDRip.AVC.Rip.by.HardwareMining.R.G.Generalfilm.mkv
Формат : Matroska
Версия формата : Version 4
Размер файла : 1,99 Гбайт
Продолжительность : 1 ч. 33 м.
Общий поток : 3 043 Кбит/сек
Название фильма : Madagascar 3.Europe's Most Wanted.2012.BDRip.AVC.Rip.by.HardwareMining.R.G.Generalfilm
Дата кодирования : UTC 2022-09-14 15:56:22
Программа кодирования : mkvmerge v6.8.0 ('Theme for Great Cities') 64bit built on Mar 2 2014 21:34:26
Библиотека кодирования : libebml v1.3.0 + libmatroska v1.4.1
Обложка : Yes
Attachments : cover3.jpg
Видео
Идентификатор : 1
Формат : AVC
Формат/Информация : Advanced Video Codec
Профиль формата : High@L4.1
Настройки формата : CABAC / 9 Ref Frames
Параметр CABAC формата : Да
Параметр RefFrames формата : 9 кадров
Идентификатор кодека : V_MPEG4/ISO/AVC
Продолжительность : 1 ч. 33 м.
Битрейт : 2 593 Кбит/сек
Ширина : 1 024 пикселя
Высота : 576 пикселей
Соотношение сторон : 16:9
Режим частоты кадров : Постоянный
Частота кадров : 23,976 (24000/1001) кадра/сек
Цветовое пространство : YUV
Субдискретизация насыщенности : 4:2:0
Битовая глубина : 8 бит
Тип развёртки : Прогрессивная
Бит/(Пиксели*Кадры) : 0.183
Размер потока : 1,65 Гбайт (83%)
Библиотека кодирования : x264 core 148 r2638 7599210
Настройки программы : cabac=1 / ref=9 / deblock=1:-2:-1 / analyse=0x3:0x113 / me=umh / subme=10 / psy=1 / psy_rd=0.00:0.15 / mixed_ref=1 / me_range=32 / chroma_me=1 / trellis=2 / 8x8dct=1 / cqm=0 / deadzone=21,11 / fast_pskip=0 / chroma_qp_offset=-3 / threads=6 / lookahead_threads=1 / sliced_threads=0 / nr=0 / decimate=0 / interlaced=0 / bluray_compat=0 / constrained_intra=0 / bframes=10 / b_pyramid=2 / b_adapt=2 / b_bias=0 / direct=1 / weightb=1 / open_gop=0 / weightp=2 / keyint=240 / keyint_min=23 / scenecut=40 / intra_refresh=0 / rc_lookahead=40 / rc=2pass / mbtree=0 / bitrate=2593 / ratetol=1.0 / qcomp=0.65 / qpmin=0 / qpmax=69 / qpstep=4 / cplxblur=20.0 / qblur=0.5 / vbv_maxrate=50000 / vbv_bufsize=65500 / nal_hrd=none / filler=0 / ip_ratio=1.40 / pb_ratio=1.30 / aq=1:2.00
Язык : English
Default : Да
Forced : Нет
Аудио
Идентификатор : 2
Формат : AC-3
Формат/Информация : Audio Coding 3
Коммерческое название : Dolby Digital
Идентификатор кодека : A_AC3
Продолжительность : 1 ч. 33 м.
Вид битрейта : Постоянный
Битрейт : 448 Кбит/сек
Каналы : 5 каналов
Channel layout : L R C Ls Rs
Частота : 48,0 КГц
Частота кадров : 31,250 кадров/сек (1536 SPF)
Метод сжатия : С потерями
Размер потока : 299 Мбайт (15%)
Заголовок : Dub | Лицензия
Язык : Russian
Service kind : Complete Main
Default : Да
Forced : Да
Меню #1
00:00:00.000 : en:00:00:00.000
00:05:16.316 : en:00:05:16.316
00:10:51.985 : en:00:10:51.985
00:19:46.310 : en:00:19:46.310
00:27:49.835 : en:00:27:49.835
00:32:50.552 : en:00:32:50.552
00:40:34.974 : en:00:40:34.974
00:46:51.976 : en:00:46:51.976
00:52:00.534 : en:00:52:00.534
00:58:55.157 : en:00:58:55.157
01:00:23.411 : en:01:00:23.411
01:04:19.314 : en:01:04:19.314
01:10:59.672 : en:01:10:59.672
01:15:30.317 : en:01:15:30.317
01:21:09.782 : en:01:21:09.782
01:22:48.630 : en:01:22:48.630
Меню #2
00:00:00.000 : :Chapter 01
00:05:16.315 : :Chapter 02
00:10:51.984 : :Chapter 03
00:19:46.310 : :Chapter 04
00:27:49.834 : :Chapter 05
00:32:50.551 : :Chapter 06
00:40:34.974 : :Chapter 07
00:46:51.975 : :Chapter 08
00:52:00.534 : :Chapter 09
00:58:55.156 : :Chapter 10
01:00:23.411 : :Chapter 11
01:04:19.313 : :Chapter 12
01:10:59.672 : :Chapter 13
01:15:30.317 : :Chapter 14
01:21:09.781 : :Chapter 15
01:22:48.630 : :Chapter 16
01:33:23.931 : :Chapter 17
Релиз от:
[Profile] [PM]
Display posts:    
Reply to topic

Current time is: 28-Sep 00:15

All times are UTC + 3



You cannot post new topics in this forum
You cannot reply to topics in this forum
You cannot edit your posts in this forum
You cannot delete your posts in this forum
You cannot vote in polls in this forum
You cannot attach files in this forum
You cannot download files in this forum