Подслушано 3 (2022) WEBRip от Files-x | KION

Reply to topic
 
Author Message

papa1951deda ®

Gender: Male

Longevity: 3 years 10 months

Posts: 1477

Location: Казахстан

Post 19-Sep-2022 18:05

[Quote]

Подслушано 3 Год выпуска: 2022
Жанр: Молодежный фильм, триллер, криминальный фильм
Выпущено: Россия, Киностудия "МТС Медиа", "LEGIO FELIX"
Режиссер: Алексей Петрашевич
В ролях: Егор Абрамов, Никита Патуев, Александр Новиков (X), Денис Васильев, Екатерина Симаходская, Светлана Маршанкина, Сергей Чудаков, Юлия Шамонова, Юлия Тельпухова, Тамара Адамова, Михаил Мухин (III), Александр Фарбер
О фильме: Третий сезон эффектно завершает интригу всего сериала, наконец раскрывая тайны вокруг Падшего. В конце второго сезона Джулс выбирается из плена маньяка, куда теперь попадают четверо ее друзей: Крест, Костя, Лика и Юра. Их подставил следователь Коблев, пошедший на сделку с убийцей, чтобы узнать тайны темной магии. Центром внимания сюжета все же остается дружба героев, которой приходится пройти проверку на прочность. Джулс предстоит выйти из оцепенения ради любимых, а ее друзьям — справиться со страхами и малодушием в критической ситуации.

Качество: WEBRip
Видео: XviD, 2240 Кбит/с, 720x304, 25 кадр/с
Аудио: AC3, 2 ch, 192 Кбит/с
Продолжительность: 01:20:00
Перевод: Не требуется | KION
Субтитры: Нет

Скриншоты


MediaInfo

Общее
Полное имя : C:\Users\павел\Downloads\Podslushano.3.2022. WEB-DLRip.Files-x.avi
Формат : AVI
Формат/Информация : Audio Video Interleave
Размер файла : 1,37 Гбайт
Продолжительность : 1 ч. 20 м.
Общий поток : 2 441 Кбит/сек
Программа кодирования : VirtualDubMod 1.5.10.3 | https://www.virtualdub-fr.org || (build 2550/release)
Библиотека кодирования : VirtualDubMod build 2550/release
Видео
Идентификатор : 0
Формат : MPEG-4 Visual
Профиль формата : Advanced Simple@L5
Настройки формата : BVOP1 / Custom Matrix
Параметр BVOP формата : 1
Параметр QPel формата : Нет
Параметр GMC формата : Без точки перехода
Параметр матрицы формата : Выборочная
Идентификатор кодека : XVID
Идентификатор кодека/Подсказка : XviD
Продолжительность : 1 ч. 20 м.
Битрейт : 2 239 Кбит/сек
Ширина : 720 пикселей
Высота : 304 пикселя
Соотношение сторон : 2,35:1
Частота кадров : 25,000 кадров/сек
Цветовое пространство : YUV
Субдискретизация насыщенности : 4:2:0
Битовая глубина : 8 бит
Тип развёртки : Прогрессивная
Метод сжатия : С потерями
Бит/(Пиксели*Кадры) : 0.409
Размер потока : 1,26 Гбайт (92%)
Библиотека кодирования : XviD 73
Аудио
Идентификатор : 1
Формат : AC-3
Формат/Информация : Audio Coding 3
Коммерческое название : Dolby Digital
Идентификатор кодека : 2000
Продолжительность : 1 ч. 20 м.
Вид битрейта : Постоянный
Битрейт : 192 Кбит/сек
Каналы : 2 канала
Channel layout : L R
Частота : 48,0 КГц
Частота кадров : 31,250 кадров/сек (1536 SPF)
Метод сжатия : С потерями
Размер потока : 111 Мбайт (8%)
Выравнивание : Разделение по промежуткам
Продолжительность промежутка : 40 мс. (1,00 видеокадр)
Время предзагрузки промежутка : 500 мс.
Service kind : Complete Main
Релиз от:

Release was prepared by RG Files-x

[Profile] [PM]
Display posts:    
Reply to topic

Current time is: 28-Sep 00:43

All times are UTC + 3



You cannot post new topics in this forum
You cannot reply to topics in this forum
You cannot edit your posts in this forum
You cannot delete your posts in this forum
You cannot vote in polls in this forum
You cannot attach files in this forum
You cannot download files in this forum