Стая [1-12 серии из 20] (2022) WEBRip-AVC от Files-х | НТВ

Reply to topic
 
Author Message

Серый1779 ®

Gender: Male

Longevity: 3 years 10 months

Posts: 2557

Location: Украина

Post 19-Sep-2022 23:56

[Quote]

Стая Год выпуска: 2022
Жанр: Детектив
Выпущено: Россия, Кинокомпания ООО «Студия РоЕл»
Режиссер: Артём Мазунов
В ролях: Вахтанг Беридзе, Андрей Градов, Филипп Бледный, Александр Зельский, Ольга Смирнова, Николай Иванов (II), Николай Токарев, Константин Тополага, Иван Шибанов, Сергей Чудаков, Ксения Лукьянчикова, Артём Мазунов, Ася Борисова, Александр Пугачёв (II), Алексей Кирилин, Лилия Мэй, Тимур Абитов
О фильме: Сергей Морозов недавно подрался с любовником жены, который оказался известным в узких кругах бизнесменом. А произошло это после того, как Морозову удалось задержать одного из руководителей Зареченской обладминистрации Реброва на получении взятки: его взялся отмазывать его двоюродный брат, сотрудник ФСБ Томилин. Событие попало не только в криминальные сводки, но и в прессу. Мотив, по которому московский начальник Морозова – Зимин – попросил своего друга, начальника УВД Зареченска Кротова принять на работу непутёвого оперативника тоже понятен: чтобы не вылететь со службы и из системы окончательно Морозову надо некоторое время пересидеть в провинции в ожидании, когда всё уляжется. Морозову ничего не остаётся, как отправиться в Зареченск. Но в провинциальном городе свои порядки: вскоре происходят два убийства, которые должны быть расследованы как можно скорее, ведь одно из них может перерасти в скандал на федеральном уровне. Но Морозову быстро становится понятно, что его коллеги не очень-то спешат с раскрытием преступлений, порой скрывают и «теряют» важные улики – одним словом «сливают» следствие. И тогда Морозов начинает самостоятельное расследование. Однако не все этому рады.
Качество: WEBRip-AVC
Видео: MPEG-4 AVC, ~ 2000 Кбит/с, 1024x432, 25 кадр/с
Аудио: AC3, 2 ch, 192 Кбит/с
Продолжительность: 12 x ~ 00:49:34
Перевод: Не требуется
Субтитры: Русские

Скриншоты



MediaInfo

General
Unique ID : 95239815714279583225749359517726063170 (0x47A68573CC9741B298EE06E83B62BA42)
Complete name : F:\Стая (НТВ).(2022).WEBRip.(AVC).Files-x\01.Стая.(2022).WEBRip.(AVC).by.Серый1779.Files-x.mkv
Format : Matroska
Format version : Version 4 / Version 2
File size : 778 MiB
Duration : 49 min 34 s
Overall bit rate : 2 193 kb/s
Encoded date : UTC 2022-09-19 20:49:51
Writing application : mkvmerge v32.0.0 ('Astral Progressions') 64-bit
Writing library : libebml v1.3.7 + libmatroska v1.5.0
Video
ID : 1
Format : AVC
Format/Info : Advanced Video Codec
Format profile : High@L4.1
Format settings : CABAC / 9 Ref Frames
Format settings, CABAC : Yes
Format settings, RefFrames : 9 frames
Codec ID : V_MPEG4/ISO/AVC
Duration : 49 min 34 s
Bit rate : 2 000 kb/s
Width : 1 024 pixels
Height : 432 pixels
Display aspect ratio : 2.40:1
Frame rate mode : Constant
Frame rate : 25.000 FPS
Color space : YUV
Chroma subsampling : 4:2:0
Bit depth : 8 bits
Scan type : Progressive
Bits/(Pixel*Frame) : 0.181
Stream size : 709 MiB (91%)
Writing library : x264 core 146 r2538 121396c
Encoding settings : cabac=1 / ref=9 / deblock=1:-2:-1 / analyse=0x3:0x133 / me=umh / subme=9 / psy=1 / psy_rd=1.00:0.15 / mixed_ref=1 / me_range=32 / chroma_me=1 / trellis=2 / 8x8dct=1 / cqm=0 / deadzone=21,11 / fast_pskip=0 / chroma_qp_offset=-3 / threads=18 / lookahead_threads=3 / sliced_threads=0 / nr=0 / decimate=1 / interlaced=0 / bluray_compat=0 / constrained_intra=0 / bframes=9 / b_pyramid=2 / b_adapt=2 / b_bias=0 / direct=1 / weightb=1 / open_gop=0 / weightp=2 / keyint=250 / keyint_min=25 / scenecut=40 / intra_refresh=0 / rc=2pass / mbtree=0 / bitrate=2000 / ratetol=1.0 / qcomp=0.60 / qpmin=0 / qpmax=69 / qpstep=4 / cplxblur=20.0 / qblur=0.5 / ip_ratio=1.40 / pb_ratio=1.30 / aq=2:1.00
Default : Yes
Forced : No
Color range : Limited
Color primaries : BT.709
Transfer characteristics : BT.709
Matrix coefficients : BT.709
Audio
ID : 2
Format : AC-3
Format/Info : Audio Coding 3
Format settings, Endianness : Big
Codec ID : A_AC3
Duration : 49 min 34 s
Bit rate mode : Constant
Bit rate : 192 kb/s
Channel(s) : 2 channels
Channel positions : Front: L R
Sampling rate : 48.0 kHz
Frame rate : 31.250 FPS (1536 SPF)
Bit depth : 16 bits
Compression mode : Lossy
Stream size : 68.1 MiB (9%)
Service kind : Complete Main
Default : Yes
Forced : No
Text
ID : 3
Format : UTF-8
Codec ID : S_TEXT/UTF8
Codec ID/Info : UTF-8 Plain Text
Duration : 49 min 18 s
Bit rate : 111 b/s
Count of elements : 691
Stream size : 40.1 KiB (0%)
Default : Yes
Forced : No
Релиз от:

Release was prepared by RG Files-x

[Profile] [PM]
Display posts:    
Reply to topic

Current time is: 28-Sep 00:34

All times are UTC + 3



You cannot post new topics in this forum
You cannot reply to topics in this forum
You cannot edit your posts in this forum
You cannot delete your posts in this forum
You cannot vote in polls in this forum
You cannot attach files in this forum
You cannot download files in this forum