Ночной режим [1-10 серии из 10] (2022) WEBRip-AVC от Files-х

Reply to topic
 
Author Message

Серый1779 ®

Gender: Male

Longevity: 3 years 10 months

Posts: 2557

Location: Украина

Post 21-Sep-2022 19:17

[Quote]

Ночной режим
Год выпуска: 2022
Жанр: Триллер, мистика
Выпущено: Россия, Кинокомпания "МТС Медиа", ПЦ "КЕДР"
Режиссер: Андрей Либенсон
В ролях: Павел Табаков, Андрей Мерзликин, Екатерина Шумакова, Андрей Карако, Андрей Душечкин, Игорь Сигов, Андрей Олиференко, Алексей Труфанов, Антон Макуха, Виктор Богушевич, Олег Алмазов, Юлианна Михневич, Андрей Королевич, Вероника Пляшкевич, Егор Садовский, Руслан Чернецкий, Елена Побегаева, Юлия Шпилевская, Максим Коростелев, Дмитрий Давидович, Владислав Виноградов (II)
О фильме: Накануне собственной свадьбы и после импровизированного мальчишника модный фотограф Роман Белов просыпается в доме с четырьмя трупами – это его лучшие друзья и проститутка. Роман ничего не помнит, но он единственный подозреваемый, которого приговаривают на пожизненное заключение. Его невеста Ирина в ужасе – она не может поверить в то, что мужчина ее жизни оказался сумасшедшим убийцей. В заключении Роман встречает необычного человека по прозвищу Учитель, который распознает в нем редчайшую способность к проникновению в собственные и чужие сны. Этот развивающийся навык сделает из героя уникального сыщика, способного вскрыть самые страшные тайны. Но как вести расследование, если ты заперт в тюрьме? И какую цену придётся заплатить за услуги человека, способного проникать в сновидения?

Качество: WEBRip-AVC
Видео: MPEG-4 AVC, ~ 1600 Кбит/с, 1024x432, 25 кадр/с
Аудио №1: AC3, 2 ch, 192 Кбит/с (С цензурой)
Аудио №2: AC3, 2 ch, 192 Кбит/с (Без цензуры, 18+) Присутствует ненормативная лексика
Продолжительность: 5 x ~ 00:56:09
Перевод: Не требуется
Субтитры: Нет

Скриншоты



MediaInfo

General
Unique ID : 141479127955312929047165552834870357966 (0x6A6FE38F2DE7EE33B8B76F0327FDAFCE)
Complete name : F:\Ночной режим.(2022).WEBRip.(AVC).Files-x\01.Ночной режим.(2022).WEBRip.(AVC).by.Серый1779.Files-x.mkv
Format : Matroska
Format version : Version 4 / Version 2
File size : 295 MiB
Duration : 20 min 45 s
Overall bit rate : 1 986 kb/s
Encoded date : UTC 2022-09-21 14:51:43
Writing application : mkvmerge v32.0.0 ('Astral Progressions') 64-bit
Writing library : libebml v1.3.7 + libmatroska v1.5.0
Video
ID : 1
Format : AVC
Format/Info : Advanced Video Codec
Format profile : High@L4.1
Format settings : CABAC / 9 Ref Frames
Format settings, CABAC : Yes
Format settings, RefFrames : 9 frames
Codec ID : V_MPEG4/ISO/AVC
Duration : 20 min 45 s
Bit rate : 1 600 kb/s
Width : 1 024 pixels
Height : 432 pixels
Display aspect ratio : 2.40:1
Frame rate mode : Constant
Frame rate : 25.000 FPS
Color space : YUV
Chroma subsampling : 4:2:0
Bit depth : 8 bits
Scan type : Progressive
Bits/(Pixel*Frame) : 0.145
Stream size : 237 MiB (81%)
Writing library : x264 core 146 r2538 121396c
Encoding settings : cabac=1 / ref=9 / deblock=1:-2:-1 / analyse=0x3:0x133 / me=umh / subme=9 / psy=1 / psy_rd=1.00:0.15 / mixed_ref=1 / me_range=32 / chroma_me=1 / trellis=2 / 8x8dct=1 / cqm=0 / deadzone=21,11 / fast_pskip=0 / chroma_qp_offset=-3 / threads=18 / lookahead_threads=3 / sliced_threads=0 / nr=0 / decimate=1 / interlaced=0 / bluray_compat=0 / constrained_intra=0 / bframes=9 / b_pyramid=2 / b_adapt=2 / b_bias=0 / direct=1 / weightb=1 / open_gop=0 / weightp=2 / keyint=250 / keyint_min=25 / scenecut=40 / intra_refresh=0 / rc=2pass / mbtree=0 / bitrate=1600 / ratetol=1.0 / qcomp=0.60 / qpmin=0 / qpmax=69 / qpstep=4 / cplxblur=20.0 / qblur=0.5 / ip_ratio=1.40 / pb_ratio=1.30 / aq=2:1.00
Default : Yes
Forced : No
Color range : Limited
Color primaries : BT.709
Transfer characteristics : BT.709
Matrix coefficients : BT.709
Audio #1
ID : 2
Format : AC-3
Format/Info : Audio Coding 3
Format settings, Endianness : Big
Codec ID : A_AC3
Duration : 20 min 44 s
Bit rate mode : Constant
Bit rate : 192 kb/s
Channel(s) : 2 channels
Channel positions : Front: L R
Sampling rate : 48.0 kHz
Frame rate : 31.250 FPS (1536 SPF)
Bit depth : 16 bits
Compression mode : Lossy
Stream size : 28.5 MiB (10%)
Service kind : Complete Main
Default : Yes
Forced : No
Audio #2
ID : 3
Format : AC-3
Format/Info : Audio Coding 3
Format settings, Endianness : Big
Codec ID : A_AC3
Duration : 20 min 44 s
Bit rate mode : Constant
Bit rate : 192 kb/s
Channel(s) : 2 channels
Channel positions : Front: L R
Sampling rate : 48.0 kHz
Frame rate : 31.250 FPS (1536 SPF)
Bit depth : 16 bits
Compression mode : Lossy
Stream size : 28.5 MiB (10%)
Service kind : Complete Main
Default : No
Forced : No

Раздача ведётся путём добавления новых серий

Внимание! Раздача ведётся путём добавления новых серий; при каждом добавлении создаётся новый торрент.
Чтобы начать докачку новой серии, пользователям необходимо сделать следующее:
1. Остановить скачивание;
2. Удалить старый торрент у себя из клиента (старые серии удалять не надо);
3. Скачать новый торрент и запустить его у себя в клиенте вместо старого, при этом указать клиенту путь в старую папку куда и должно происходить скачивание новых серий. Ваш клиент при этом должен произвести хеширование (проверку) старой папки и будет докачивать только те серии, которых у вас ещё нет. Старые серии при этом не удаляются, а продолжают раздаваться! Eсли вы уже удалили старые серии, то предотвратить повторную закачку старых серий можно, отжав галочку в соответствующих местах при запуске нового торрента.
Релиз от:

Release was prepared by RG Files-x

[Profile] [PM]
Display posts:    
Reply to topic

Current time is: 27-Sep 23:00

All times are UTC + 3



You cannot post new topics in this forum
You cannot reply to topics in this forum
You cannot edit your posts in this forum
You cannot delete your posts in this forum
You cannot vote in polls in this forum
You cannot attach files in this forum
You cannot download files in this forum