Оффлайн [1-10 серии из 10 + Фильм о фильме] (2022) WEB-DLRip от Generalfilm | КПК

Reply to topic
 
Author Message

mjjhec ®

Gender: Male

Longevity: 3 years 10 months

Posts: 1356

Location: СССР

Post 22-Sep-2022 11:39

[Quote]

Оффлайн Год выпуска: 2022
Жанр: Триллер, детектив, драма
Выпущено: Россия, BUBBLEGUM PRODUCTION по заказу Okko Studios
Режиссер: Кирилл Плетнёв
В ролях: Никита Ефремов, Денис Шведов, Никита Кологривый, Полина Максимова, Альфия Закирова, Марина Ворожищева, Алёна Константинова, Тина Стойилкович, Егор Кенжаметов, Игорь Черневич, Риналь Мухаметов, Полина Пушкарук, Алексей Шевченков, Дмитрий Ульянов, Анна Каменкова, Никита Карпинский, Павел Чернышев, Даниил Белых, Александр Фисенко, Алексей Коряков, Полина Айнутдинова, Василий Михайлов, Николай Хмелёв, Михаил Водзуми, Сергей Покопцев, Егор Ковалёв, Александр Комиссаров, Максим Линников, Сергей Легостаев, Александр Макаршин, Александр Мякушко, Геннадий Семёнов, Валентин Самохин, Евгений Харланов, Матвей Черных, Алексей Юдников, Серафим Долбунов, Константин Умрихин, Алёна Ицкова, Карина Шишлянникова.
О фильме: BeHappy - секретное невидимое приложение, которое служит для покупки наркотиков через смартфон. Его пользователи сталкиваются с серьезным противником, который прячется под именем Анонимус. Он сообщает им, что сумел раскрыть данные всех, кто когда-либо пользовался этим приложением и теперь он дает им выбор - пойти в полицию и во всем признаться или сыграть в игру со смертью. Что будет, если в этой игре проиграть, становится ясно, когда пользователи BeHappy получают фото кладмена с перерезанным горлом.
Качество: WEB-DLRip | КПК
Видео: H.264, 640x264 (2.40:1), 25 fps, 400 kb/s
Аудио: AAC, 48 kHz, 2 ch, 128 kb/s
Продолжительность: 11 х ~00:52:00
Перевод: Не требуется
Версия без цензуры 18+

Скриншоты


MediaInfo

Complete name : F:\Rip\Offlin.by.mjjhec\Offlajn.S01.E03.2022.WEB-DLRip.mp4
Format : MPEG-4
Format profile : Base Media
Codec ID : isom (isom/avc1)
File size : 217 MiB
Duration : 57 min 6 s
Overall bit rate mode : Variable
Overall bit rate : 532 kb/s
Encoded date : UTC 2022-09-20 09:35:59
Tagged date : UTC 2022-09-20 09:35:59
Video
ID : 1
Format : AVC
Format/Info : Advanced Video Codec
Format profile : High@L4.1
Format settings : CABAC / 9 Ref Frames
Format settings, CABAC : Yes
Format settings, Reference : 9 frames
Codec ID : avc1
Codec ID/Info : Advanced Video Coding
Duration : 57 min 6 s
Bit rate : 400 kb/s
Maximum bit rate : 2 583 kb/s
Width : 640 pixels
Height : 264 pixels
Display aspect ratio : 2.40:1
Frame rate mode : Constant
Frame rate : 25.000 FPS
Color space : YUV
Chroma subsampling : 4:2:0
Bit depth : 8 bits
Scan type : Progressive
Bits/(Pixel*Frame) : 0.095
Stream size : 163 MiB (75%)
Writing library : x264 core 125 r2208 d9d2288
Encoding settings : cabac=1 / ref=9 / deblock=1:-3:-3 / analyse=0x3:0x133 / me=umh / subme=11 / psy=1 / psy_rd=1.00:0.00 / mixed_ref=1 / me_range=32 / chroma_me=1 / trellis=2 / 8x8dct=1 / cqm=0 / deadzone=21,11 / fast_pskip=1 / chroma_qp_offset=-4 / threads=6 / lookahead_threads=1 / sliced_threads=0 / nr=0 / decimate=1 / interlaced=0 / bluray_compat=0 / constrained_intra=0 / bframes=9 / b_pyramid=2 / b_adapt=2 / b_bias=0 / direct=3 / weightb=1 / open_gop=0 / weightp=2 / keyint=240 / keyint_min=24 / scenecut=40 / intra_refresh=0 / rc_lookahead=40 / rc=2pass / mbtree=1 / bitrate=400 / ratetol=1.0 / qcomp=0.60 / qpmin=0 / qpmax=69 / qpstep=4 / cplxblur=20.0 / qblur=0.5 / vbv_maxrate=14000 / vbv_bufsize=14000 / nal_hrd=none / ip_ratio=1.40 / aq=1:1.00
Encoded date : UTC 2022-09-20 09:35:59
Tagged date : UTC 2022-09-20 09:36:04
Codec configuration box : avcC
Audio
ID : 2
Format : AAC LC
Format/Info : Advanced Audio Codec Low Complexity
Codec ID : mp4a-40-2
Duration : 57 min 6 s
Bit rate mode : Variable
Bit rate : 128 kb/s
Maximum bit rate : 138 kb/s
Channel(s) : 2 channels
Channel layout : L R
Sampling rate : 48.0 kHz
Frame rate : 46.875 FPS (1024 SPF)
Compression mode : Lossy
Stream size : 52.3 MiB (24%)
Encoded date : UTC 2022-09-20 09:36:03
Tagged date : UTC 2022-09-20 09:36:04
Релиз от:
[Profile] [PM]
Display posts:    
Reply to topic

Current time is: 28-Sep 00:11

All times are UTC + 3



You cannot post new topics in this forum
You cannot reply to topics in this forum
You cannot edit your posts in this forum
You cannot delete your posts in this forum
You cannot vote in polls in this forum
You cannot attach files in this forum
You cannot download files in this forum