Главная роль / Competencia oficial / Official Competition (2021) BDRip 1080p [DUB] от R.G.Generalfilm | CPI Films

Reply to topic
 
Author Message

White Smoke ®

Gender: Male

Longevity: 3 years 10 months

Posts: 247

Post 22-Sep-2022 18:39

[Quote]

Главная роль / Competencia oficial / Official Competition Год выпуска: 2021
Жанр: драма, комедия
Выпущено: Испания, Аргентина | The MediaPro Studio
Режиссер: Мариано Кон, Гастон Дюпра
В ролях: Пенелопа Крус, Антонио Бандерас, Оскар Мартинес, Хосе Луис Гомес, Маноло Соло, Нагоре Арамбуру, Ирена Эсколар, Пилар Кастро, Кольдо Олабарри, Хуан Грандинетти
О фильме: Тщеславный миллиардер задался целью вписать свое имя в историю, взявшись за создание идеального фильма. Сценарий - книга Нобелевского лауреата, режиссер - модная и эксцентричная, в главных ролях - разбитной секс-символ кумир миллионов и высоколобый драматический актер. Ждать шедевра или ждать беды?
Качество: BDRip 1080p
Видео: MPEG-4 AVC, 1920x800 (2.40:1), 24.000 fps, 8 600 kb/s (0.233 bit/pixel)
Аудио: русский 48 kHz, AC3, 5.1, 448 Kbps
Продолжительность: 01:55:23
Перевод : Дублированный | Кинопоиск HD (СиПиАй Филмз / CPI Films)
Субтитры: Русские (Forced)

Скриншоты

MediaInfo

General
Unique ID : 197416012555950142268256603204559957890 (0x9484F0E5EB8F0A948C00477F6F75EF82)
Complete name : D:\Запись ТВ\Official.Competition.2021.BDRip-1080p.Rip.by.White Smoke.R.G.Generalfilm.mkv
Format : Matroska
Format version : Version 4
File size : 7.28 GiB
Duration : 1 h 55 min
Overall bit rate : 9 036 kb/s
Movie name : Official.Competition.2021.BDRip-1080p.Rip.by.White Smoke.R.G.Generalfilm.mkv
Encoded date : UTC 2022-09-22 15:13:54
Writing application : mkvmerge v6.8.0 ('Theme for Great Cities') 64bit built on Mar 2 2014 21:34:26
Writing library : libebml v1.3.0 + libmatroska v1.4.1
Video
ID : 1
Format : AVC
Format/Info : Advanced Video Codec
Format profile : High@L4.1
Format settings : CABAC / 4 Ref Frames
Format settings, CABAC : Yes
Format settings, Reference frames : 4 frames
Codec ID : V_MPEG4/ISO/AVC
Duration : 1 h 55 min
Bit rate : 8 600 kb/s
Width : 1 920 pixels
Height : 800 pixels
Display aspect ratio : 2.40:1
Frame rate mode : Constant
Frame rate : 24.000 FPS
Color space : YUV
Chroma subsampling : 4:2:0
Bit depth : 8 bits
Scan type : Progressive
Bits/(Pixel*Frame) : 0.233
Stream size : 6.78 GiB (93%)
Writing library : x264 core 130 r2273 b3065e6
Encoding settings : cabac=1 / ref=4 / deblock=1:-2:-1 / analyse=0x3:0x133 / me=umh / subme=10 / psy=1 / psy_rd=1.00:0.08 / mixed_ref=1 / me_range=32 / chroma_me=1 / trellis=2 / 8x8dct=1 / cqm=0 / deadzone=21,11 / fast_pskip=0 / chroma_qp_offset=-3 / threads=48 / lookahead_threads=6 / sliced_threads=0 / nr=0 / decimate=1 / interlaced=0 / bluray_compat=0 / constrained_intra=0 / bframes=10 / b_pyramid=2 / b_adapt=2 / b_bias=0 / direct=3 / weightb=1 / open_gop=0 / weightp=2 / keyint=240 / keyint_min=24 / scenecut=40 / intra_refresh=0 / rc=2pass / mbtree=0 / bitrate=8600 / ratetol=1.0 / qcomp=0.60 / qpmin=0 / qpmax=69 / qpstep=4 / cplxblur=20.0 / qblur=0.5 / ip_ratio=1.40 / pb_ratio=1.30 / aq=2:1.00
Language : English
Default : Yes
Forced : No
Color range : Limited
Color primaries : BT.709
Transfer characteristics : BT.709
Matrix coefficients : BT.709
Audio
ID : 2
Format : AC-3
Format/Info : Audio Coding 3
Commercial name : Dolby Digital
Codec ID : A_AC3
Duration : 1 h 55 min
Bit rate mode : Constant
Bit rate : 448 kb/s
Channel(s) : 6 channels
Channel layout : L R C LFE Ls Rs
Sampling rate : 48.0 kHz
Frame rate : 31.250 FPS (1536 SPF)
Compression mode : Lossy
Stream size : 370 MiB (5%)
Title : Dub [СиПиАй Филмз / CPI Films]
Language : Russian
Service kind : Complete Main
Default : Yes
Forced : Yes
Text
ID : 3
Format : UTF-8
Codec ID : S_TEXT/UTF8
Codec ID/Info : UTF-8 Plain Text
Title : Forced
Language : Russian
Default : Yes
Forced : Yes
Menu
00:00:00.000 : en:Глава 01
00:10:42.417 : en:Глава 02
00:22:27.708 : en:Глава 03
00:28:51.083 : en:Глава 04
00:40:23.917 : en:Глава 05
00:46:38.750 : en:Глава 06
00:59:27.833 : en:Глава 07
01:07:00.833 : en:Глава 08
01:17:59.042 : en:Глава 09
01:30:26.250 : en:Глава 10
01:36:01.125 : en:Глава 11
01:47:24.250 : en:Глава 12
Релиз от:
[Profile] [PM]
Display posts:    
Reply to topic

Current time is: 27-Sep 23:13

All times are UTC + 3



You cannot post new topics in this forum
You cannot reply to topics in this forum
You cannot edit your posts in this forum
You cannot delete your posts in this forum
You cannot vote in polls in this forum
You cannot attach files in this forum
You cannot download files in this forum