Союз спасения. Время гнева [1-8 серии из 8] (2022) WEBRip от Files-х

Reply to topic
 
Author Message

bond74 ®

Gender: Male

Longevity: 4 years

Posts: 1833

Post 28-Sep-2022 15:13

[Quote]

Союз спасения. Время гнева Год выпуска: 2022
Жанр: История, биография, драма
Выпущено: Россия, Кинокомпания "Дирекция Кино", "ЛукФильм"
Режиссер: Никита Высоцкий, Илья Лебедев
В ролях: Леонид Бичевин, Максим Матвеев, Иван Колесников, Виталий Кищенко, Антон Шагин, Павел Прилучный, Иван Янковский, Софья Эрнст, Александр Домогаров, Игорь Петренко, Владислав Ветров, Роман Мадянов, Максим Аверин, Сергей Безруков, Алексей Гуськов, Даниил Воробьёв, Тихон Жизневский, Андрей Мартынов, Ксения Кутепова, Александр Устюгов, Сергей Колтаков, Артём Ткаченко, Павел Баршак, Ингеборга Дапкунайте, Елена Лотова, Сергей Уманов, Юрий Чурсин, Никита Высоцкий, Сергей Перегудов, Антон Момот, Александр Метёлкин, Михаил Елисеев, Ефим Петрунин, Кирилл Кузнецов, Антон Феоктистов, Павел Ворожцов, Марина Коняшкина, Александра Власова, Андрес Пуустусмаа, Кристина Бро
О фильме: Повергнув Наполеона, русская армия изменила мир. Наступило время менять саму Россию. Но победители разделились. Власть медлит, а cреди молодых офицеров военной элиты зреет заговор. Возможность договориться уменьшается с каждым днём. Свои становятся врагами. Наступает время гнева.

Качество: WEBRip
Видео: XviD, ~ 1600 Кбит/с, 720x304, 25 кадр/с
Аудио: AC3, 2 ch, 192 Кбит/с
Продолжительность: 5 х ~ 00:50:00
Перевод: Не требуется
Субтитры: Нет

Скриншоты




MediaInfo

Общее
Полное имя : C:\films\Союз спасения. Время гнева.2022.WEB-DLRip.Files-x\02. Союз спасения. Время гнева.2022.WEB-DLRip.Files-x.avi
Формат : AVI
Формат/Информация : Audio Video Interleave
Размер файла : 709 Мбайт
Продолжительность : 55 м. 2 с.
Общий поток : 1 802 Кбит/сек
Программа кодирования : VirtualDubMod 1.5.10.3 | www.virtualdub-fr.org || (build 2550/release)
Библиотека кодирования : VirtualDubMod build 2550/release
Видео
Идентификатор : 0
Формат : MPEG-4 Visual
Профиль формата : Advanced Simple@L5
Настройки формата : BVOP1 / Custom Matrix
Параметр BVOP формата : 1
Параметр QPel формата : Нет
Параметр GMC формата : Без точки перехода
Параметр матрицы формата : Выборочная
Идентификатор кодека : XVID
Идентификатор кодека/Подсказка : XviD
Продолжительность : 55 м. 2 с.
Битрейт : 1 600 Кбит/сек
Ширина : 720 пикселей
Высота : 304 пикселя
Соотношение сторон : 2,35:1
Частота кадров : 25,000 кадров/сек
Цветовое пространство : YUV
Субдискретизация насыщенности : 4:2:0
Битовая глубина : 8 бит
Тип развёртки : Прогрессивная
Метод сжатия : С потерями
Бит/(Пиксели*Кадры) : 0.292
Размер потока : 630 Мбайт (89%)
Библиотека кодирования : XviD 1.2.1 (UTC 2008-12-04)
Аудио
Идентификатор : 1
Формат : AC-3
Формат/Информация : Audio Coding 3
Коммерческое название : Dolby Digital
Идентификатор кодека : 2000
Продолжительность : 55 м. 2 с.
Вид битрейта : Постоянный
Битрейт : 192 Кбит/сек
Каналы : 2 канала
Channel layout : L R
Частота : 48,0 КГц
Частота кадров : 31,250 кадров/сек (1536 SPF)
Метод сжатия : С потерями
Размер потока : 75,6 Мбайт (11%)
Выравнивание : Разделение по промежуткам
Продолжительность промежутка : 40 мс. (1,00 видеокадр)
Время предзагрузки промежутка : 500 мс.
Service kind : Complete Main

Раздача ведётся путём добавления новых серий

Внимание! Раздача ведётся путём добавления новых серий; при каждом добавлении создаётся новый торрент.
Чтобы начать докачку новой серии, пользователям необходимо сделать следующее:
1. Остановить скачивание;
2. Удалить старый торрент у себя из клиента (старые серии удалять не надо);
3. Скачать новый торрент и запустить его у себя в клиенте вместо старого, при этом указать клиенту путь в старую папку куда и должно происходить скачивание новых серий. Ваш клиент при этом должен произвести хеширование (проверку) старой папки и будет докачивать только те серии, которых у вас ещё нет. Старые серии при этом не удаляются, а продолжают раздаваться! Eсли вы уже удалили старые серии, то предотвратить повторную закачку старых серий можно, отжав галочку в соответствующих местах при запуске нового торрента.
Релиз от:

Release was prepared by RG Files-x

[Profile] [PM]

KRIEVS2011

Gender: Male

Longevity: 3 years 10 months

Posts: 554

Location: ☭☭☭ « Латвия - Latvija » « Рига - Riga » ☭☭☭

Post 30-Oct-2022 03:32 (after 1 month 1 day)

[Quote]

Хороший Фильм
Уважаю такие Фильмы
Раздающему...
Большое Спасибо !!!

============
Название Серий
============
1 « Теперь возможно Всё » XIX век
2 « Высочайшая Воля » XIX век
3 « Поднимается Ветер » XIX век
4 « Неисполненная Мечта » XIX век
5 « Мы не Успели » XIX век
6 « Ангелы Танцуют » XIX век
7 « Моей вины Нет » XIX век
8 « Виктория » XIX век
============================
[Profile] [PM]
Display posts:    
Reply to topic

Current time is: 05-Dec 05:33

All times are UTC + 3



You cannot post new topics in this forum
You cannot reply to topics in this forum
You cannot edit your posts in this forum
You cannot delete your posts in this forum
You cannot vote in polls in this forum
You cannot attach files in this forum
You cannot download files in this forum