Discovery. Смертельный улов / Deadliest Catch [14 сезон: 1-24 серии из 24] (2018) HDTVRip 720p от GeneralFilm

Reply to topic
 
Author Message

Starik60 ®

Gender: Male

Longevity: 11 months 10 days

Posts: 171

Location: Москва, Россия

Post 17-Dec-2018 11:20

[Quote]

Смертельный улов / Deadliest Catch Год выпуска: 2018
Жанр: Документальный, приключения, реальное-ТВ
Выпущено: США, Discovery Channel HD
Режиссер: Том Бирс
В ролях: Майк Роу, Сиг Хансен, Эдгар Хансен, Кит Колберн, Джонатан Хиллстренд, Джейк Андерсон, Энди Хиллстренд, Джош Харрис, Фил Харрис
О фильме: Ловля крабов в Беринговом море у берегов Аляски – работа трудная и чрезвычайно опасная. В новом сезоне шоу «Смертельный улов» не все герои программы настроены оптимистично. Дикий Билл вкладывает все деньги в новое судно, а для братьев Хиллстренд этот сезон грозит стать последним. Сигу не удается найти золотую середину между здоровьем и богатством, а молодые капитаны Джейк и Шон пытаются отстоять своё место во флотилии краболовов. Между тем температура воды в Беринговом море лишь за один прошлый год поднялась на 4 °С, что в 50 раз превышает скорость потепления мирового океана. Как следствие, исчезают крабы и краболовы в панике ищут новые места лова. Капитан Сиг, перенесший инфаркт, готовится к худшему. После трудного прошлого сезона похудевший, трезвый и злой Кит Колберн вновь встает за штурвал. Квоты сокращены, Шон изо всех сил пытается сохранить наследие своего отца. И, наконец, профессиональное будущее Джейка Андерсона находится под вопросом после провального предыдущего сезона.

Качество: HDTVRip 720p
Видео: MPEG-4 AVC, ~ 4000 Кбит/с, 1280x720
Аудио: MP2, 2 ch, 192 Кбит/с
Продолжительность: 24 x ~ 00:44:00
Перевод: Профессиональный (двухголосый,закадровый)
Cубтитры: нет

Скриншоты



MediaInfo

General
Unique ID : 284946402107478174427008760972978905581 (0xD65EAE4B4BAD21DFB350B1E894D761ED)
Complete name : G:\Раздачи 2\Смертельный улов S14 720p GeneralFilm\01 Смертельный улов S14 GeneralFilm.mkv
Format : Matroska
Format version : Version 2
File size : 2.56 GiB
Duration : 1 h 27 min
Overall bit rate mode : Constant
Overall bit rate : 4 198 kb/s
Writing application : Lavf54.63.104
Writing library : Lavf54.63.104
Video
ID : 1
Format : AVC
Format/Info : Advanced Video Codec
Format profile : High@L4.1
Format settings : CABAC / 3 Ref Frames
Format settings, CABAC : Yes
Format settings, ReFrames : 3 frames
Codec ID : V_MPEG4/ISO/AVC
Duration : 1 h 27 min
Bit rate mode : Constant
Bit rate : 4 000 kb/s
Width : 1 280 pixels
Height : 720 pixels
Display aspect ratio : 16:9
Frame rate mode : Constant
Frame rate : 50.000 FPS
Standard : PAL
Color space : YUV
Chroma subsampling : 4:2:0
Bit depth : 8 bits
Scan type : Progressive
Bits/(Pixel*Frame) : 0.087
Stream size : 2.39 GiB (93%)
Default : No
Forced : No
Color range : Limited
Color primaries : BT.709
Transfer characteristics : BT.709
Matrix coefficients : BT.709
Audio
ID : 2
Format : MPEG Audio
Format version : Version 1
Format profile : Layer 2
Codec ID : A_MPEG/L2
Codec ID/Hint : MP2
Duration : 1 h 27 min
Bit rate mode : Constant
Bit rate : 192 kb/s
Channel(s) : 2 channels
Sampling rate : 48.0 kHz
Compression mode : Lossy
Delay relative to video : 8 ms
Stream size : 120 MiB (5%)
Language : English
Default : Yes
Forced : No

Название серий

01. Капитан против капитана. (спецвыпуск)
02. Линия фронта.
03. Первая кровь.
04. Мертвый штиль.
05. Соль на ранах.
06. Угроза затопления.
07. Арктический ураган.
08. Столкновение королей.
09. Герои береговой охраны. (спецвыпуск)
10. Как стать капитаном.
11. Чистилище.
12. Проклятье зимы.
13. Сбой.
14. Дурная кровь.
15. Конфликт капитанов.
16. Исчезнувшие в Беринговом море. (спецвыпуск)
17. Крещение огнем.
18. Супер лунный шторм.
19. Гринхорн за бортом.
20. Войны за территорию.
21. Кровь и вода.
22. Штормовая волна.
23. День сурка.
24. Cамые трудные моменты. (спецвыпуск)
Релиз от:
[Profile] [PM]
Display posts:    
Reply to topic

Current time is: 23-Oct 08:05

All times are UTC + 3



You cannot post new topics in this forum
You cannot reply to topics in this forum
You cannot edit your posts in this forum
You cannot delete your posts in this forum
You cannot vote in polls in this forum
You cannot attach files in this forum
You cannot download files in this forum