Полигон [1-84 выпуски] (2012-2018) SATRip от Generalfilm

Reply to topic
 
Author Message

olegka7373 ®

Gender: Male

Longevity: 5 months 8 days

Posts: 88

Location: Россия, Новокузнецк

Post 25-Dec-2018 18:53

[Quote]

Полигон
Год выпуска: 2012-2018
Жанр: Документальный, военный
Выпущено: Россия, ООО "Единая медиа группа"
Ведущий: Иван Лебедев, Дмитрий Задорожный, Алексей Громыко
О фильме: Одна из самых ожидаемых премьер этого телесезона - программа о современных военных разработках, новейших видах вооружения, средствах ведения боя и индивидуальной защиты! Российская армия сегодня – это не только автомат Калашникова и самолеты Сухого. Инновационные разработки военно-промышленного комплекса открывают практически безграничные возможности. Однако гражданским лицам о них известно крайне мало. Чтобы восполнить этот пробел, ведущие телеканала "Россия 2" Иван Лебедев и Дмитрий Задорожный отправляются на настоящие военные полигоны. В "боевых условиях" они попытаются выяснить, как устроены и работают современные бронеавтомобили и снайперские винтовки, ударные вертолеты и боевые корабли. С любознательностью новобранцев они будут рассматривать каждый винтик и интересоваться его предназначением, а также проводить тест-драйвы, ставить рискованные опыты и бесшабашные эксперименты. В этой программе не будет кирзовых сапог и строевой подготовки. Зато будет все то, о чем каждый настоящий мужчина мечтает с раннего детства – много оружия и грозной военной техники.
Качество: SATRip
Видео: XviD, ~ 1797 Кбит/с, 704x400, 720x400, 25 кадр/с
Аудио: MP3, 2 ch, 128 Кбит/с
Продолжительность: 84 х ~ 00:27:00
Перевод: Не требуется
Субтитры: нет

Скриншоты



MediaInfo

Общее
Полное имя : D:\Poligon.SATRip.MediaClub\82. Малые ракетные корабли.avi
Формат : AVI
Формат/Информация : Audio Video Interleave
Размер файла : 383 Мбайт
Продолжительность : 26 м. 52 с.
Общий поток : 1993 Кбит/сек
Программа кодирования : VirtualDubMod 1.5.10.3 | www.virtualdub-fr.org || (build 2550/release)
Библиотека кодирования : VirtualDubMod build 2550/release
Видео
Идентификатор : 0
Формат : MPEG-4 Visual
Профиль формата : Advanced Simple@L5
Параметр BVOP формата : 1
Параметр QPel формата : Нет
Параметр GMC формата : Без точки перехода
Параметр матрицы формата : Выборочная
Идентификатор кодека : XVID
Идентификатор кодека/Подсказка : XviD
Продолжительность : 26 м. 52 с.
Битрейт : 1791 Кбит/сек
Ширина : 720 пикселей
Высота : 400 пикселей
Соотношение сторон : 16:9
Частота кадров : 25,000 кадров/сек
Цветовое пространство : YUV
Субдискретизация насыщенности : 4:2:0
Битовая глубина : 8 бит
Тип развёртки : Прогрессивная
Метод сжатия : С потерями
Бит/(Пиксели*Кадры) : 0.249
Размер потока : 344 Мбайт (90%)
Библиотека кодирования : XviD 1.2.1 (UTC 2008-12-04)
Аудио
Идентификатор : 1
Формат : AC-3
Формат/Информация : Audio Coding 3
Расширение режима : CM (complete main)
Параметр Endianness формата : Big
Идентификатор кодека : 2000
Продолжительность : 26 м. 52 с.
Вид битрейта : Постоянный
Битрейт : 192 Кбит/сек
Каналы : 2 канала
Расположение каналов : Front: L R
Частота : 48,0 КГц
Частота кадров : 31,250 кадров/сек (1536 spf)
Битовая глубина : 16 бит
Метод сжатия : С потерями
Размер потока : 36,9 Мбайт (10%)
Выравнивание : Разделение по промежуткам
Продолжительность промежутка : 40 мс. (1,00 видеокадр)
Время предзагрузки промежутка : 500 мс.

Содержание

1. Универсальный солдат
2. Терминатор
3. Прорыв
4. Оружие снайпера
5. Десантура
6. Мост за час
7. Боевые вертолёты
8. Дикая кошка
9. Неуловимый мститель
10. Крупный калибр
11. Корд
12. Ключ к небу
13. Возвращение легенды
14. База 201
15. Боевая авиация
16. "ОКНО"
17. Панцирь
18. Воздушный бой
19. Спасение подводной лодки
20. Большие пушки
21. Путешествие на глубину (1 часть)
22. Путешествие на глубину (2 часть)
23. РХБЗ
24. Разведка
25. Авианосец
26. Саперы
27. Тяжелый десант
28. Артиллерия Балтики
29. Зубр
30. Оружие победы
31. БМП-3. (часть 1)
32. БМП-3. (часть 2)
33. Спрут
34. Эшелон
35. Ангара. Часть 1
36. Ангара. Часть 2
37. Пулеметы
38. Дневники танкиста. Часть 1
39. Дневники танкиста. Часть 2
40. Дневники танкиста. Часть 3
41. Самоходное орудие "Нона"
42. Мины
43. Огнеметы
44. Тор. Рождение
45. Тор. Испытание
46. Ту-95. Медведь
47.Танк Победы
48. Танк Т-80У
49. Спецбоеприпасы
50. Стратеги
51. Минная война
52. Переправа
53. Морпехи
54. Танк Т-72БЗ
55. Корветы (1 часть)
56. Корветы (2 часть)
57. Большой десантный корабль
58. Гаубица Д-30
59. Разминирование
60. БПК. Североморск
61. Ка-27
62. Операция Шторм. Часть 1
63. Операция Шторм. Часть 2
64. Операция Шторм. Часть 3
65. ТАРКР. Петр Великий
66. Операция Шторм. Часть 4
67. Андреевский флаг. Фильм 1
68. Андреевский флаг. Фильм 2
69. Андреевский флаг. Возвращение
70. Начало
71. Проверено на себе
72. Избранное
73. Штурмовики
74. Взрывной выпуск
75. Как снять танк и не попасть под гусеницы
76. МиГ-29К.Возрождение
77. МиГ-29К. Форсаж
78. Эволюция танкостроения
79. СУ-30СМ
80. Северный флот
81. Тавкр.«Адмирал Кузнецов»
82. Малые ракетные корабли
83. Служебные собаки
84. Вертолет Ка-27

Внимание! Раздача ведётся путём добавления новых серий

Раздача ведётся путём добавления новых серий, при каждом добавлении создаётся новый торрент. Чтобы начать докачку новой серии, пользователям необходимо сделать следующее:
- Остановить скачивание.
- Удалить старый торрент у себя из клиента (старые серии удалять не надо).
- Скачать новый торрент и запустить его у себя в клиенте вместо старого, при этом указать клиенту путь в старую папку куда и должно происходить скачивание новых серий.
Ваш клиент при этом должен произвести хеширование (проверку) старой папки (если не производит сам - помогите ему сделать это), и будет докачивать только те серии которых у вас ещё нет. Старые серии при этом не удаляются, а продолжают раздаваться!
Если вы уже удалили старые серии, то предотвратить повторную закачку старых серий можно, отжав галочку в соответствующих местах при запуске нового торрента. По возможности, желательно не удалять старые серии как можно дольше, чтобы релизер не столько продолжал раздавать старые серии, а смог сконцентрироваться на новых.
Релиз:
[Profile] [PM]

olegka7373 ®

Gender: Male

Longevity: 5 months 8 days

Posts: 88

Location: Россия, Новокузнецк

Post 26-Mar-2019 06:52 (after 3 months)

[Quote]

Извиняюсь за свою невнимательность серии 61 и 84 одинаковые
[Profile] [PM]
Display posts:    
Reply to topic

Current time is: 21-Apr 15:18

All times are UTC + 3



You cannot post new topics in this forum
You cannot reply to topics in this forum
You cannot edit your posts in this forum
You cannot delete your posts in this forum
You cannot vote in polls in this forum
You cannot attach files in this forum
You cannot download files in this forum