Смолфут / Smallfoot (2018) BDRip 1080p от R.G.Generalfilm [iTunes]

Ответить на тему
 
Автор Сообщение

White Smoke ®

Пол: Мужской

Стаж: 2 месяца 3 дня

Сообщений: 19

Создавать темы 28-Дек-2018 13:25

[Цитировать]

Смолфут / Smallfoot Год выпуска: 2018
Жанр: мультфильм, мюзикл, фэнтези, комедия, приключения, семейный
Выпущено: США
Режиссер: Кэри Киркпатрик, Джейсон Рейсиг
В ролях: Ченнинг Татум, Джеймс Корден, Зендея, Коммон, Леброн Джеймс, Дэнни ДеВито, Джина Родригез, Яра Шахиди, Эли Генри, Джимми Татро
Рейтинг:

MPAA: PG - рекомендуется присутствие родителей
О фильме: «Смолфут» переворачивает миф о бигфутах с ног на голову. В нем молодой находчивый йети сталкивается с тем, что по его глубокому убеждению, не существует - человека. Новости о «смолфуте» приносят ему славу и шанс завоевать девушку его мечты. А еще - вызывают переполох среди простых йети, которые теперь гадают, что же еще обитает в большом мире за пределами их маленькой заснеженной деревушки
Качество: BDRip 1080p
Видео: AVC, 1920x800 (2.40:1), 23.976 fps, 5 800 Kbps (0.157 bit/pixel)
Аудио: AC3, 384 Кбит/с, 6 ch, 48.0 KHz
Навигация по главам: есть

Продолжительность: 01:36:17
Перевод: Профессиональный (полное дублирование) | iTunes
Cубтитры: русские (Forced) (Full)-

Скриншоты





MediaInfo

General
Unique ID : 184663433843642485549447432776989189145 (0x8AECE2395471B165B74B58FC2DE2A419)
Complete name : E:\Запись с тв\Smallfoot.2018.BDRip-1080p.Rip.by.White Smoke.R.G.Generalfilm.mkv
Format : Matroska
Format version : Version 4 / Version 2
File size : 4.16 GiB
Duration : 1 h 36 min
Overall bit rate : 6 187 kb/s
Movie name : Smallfoot.2018.BDRip-1080p.Rip.by.White Smoke.R.G.Generalfilm.mkv
Encoded date : UTC 2018-12-28 06:50:15
Writing application : mkvmerge v6.8.0 ('Theme for Great Cities') 64bit built on Mar 2 2014 21:34:26
Writing library : libebml v1.3.0 + libmatroska v1.4.1
Cover : Yes
Attachments : cover.jpg
Video
ID : 1
Format : AVC
Format/Info : Advanced Video Codec
Format profile : High@L4.1
Format settings : CABAC / 5 Ref Frames
Format settings, CABAC : Yes
Format settings, ReFrames : 5 frames
Codec ID : V_MPEG4/ISO/AVC
Duration : 1 h 36 min
Bit rate : 5 800 kb/s
Width : 1 920 pixels
Height : 800 pixels
Display aspect ratio : 2.40:1
Frame rate mode : Constant
Frame rate : 23.976 (24000/1001) FPS
Color space : YUV
Chroma subsampling : 4:2:0
Bit depth : 8 bits
Scan type : Progressive
Bits/(Pixel*Frame) : 0.157
Stream size : 3.82 GiB (92%)
Writing library : x264 core 148 r2638 7599210
Encoding settings : cabac=1 / ref=5 / deblock=1:-2:-1 / analyse=0x3:0x113 / me=umh / subme=11 / psy=1 / psy_rd=0.00:0.15 / mixed_ref=1 / me_range=32 / chroma_me=1 / trellis=2 / 8x8dct=1 / cqm=0 / deadzone=21,11 / fast_pskip=0 / chroma_qp_offset=-3 / threads=6 / lookahead_threads=1 / sliced_threads=0 / nr=0 / decimate=0 / interlaced=0 / bluray_compat=0 / constrained_intra=0 / bframes=10 / b_pyramid=2 / b_adapt=2 / b_bias=0 / direct=1 / weightb=1 / open_gop=0 / weightp=2 / keyint=240 / keyint_min=23 / scenecut=40 / intra_refresh=0 / rc=2pass / mbtree=0 / bitrate=5800 / ratetol=1.0 / qcomp=0.65 / qpmin=0 / qpmax=69 / qpstep=4 / cplxblur=20.0 / qblur=0.5 / ip_ratio=1.40 / pb_ratio=1.30 / aq=1:1.00
Language : English
Default : Yes
Forced : No
Audio
ID : 2
Format : AC-3
Format/Info : Audio Coding 3
Commercial name : Dolby Digital
Codec ID : A_AC3
Duration : 1 h 36 min
Bit rate mode : Constant
Bit rate : 384 kb/s
Channel(s) : 6 channels
Channel layout : L R C LFE Ls Rs
Sampling rate : 48.0 kHz
Frame rate : 31.250 FPS (1536 SPF)
Bit depth : 16 bits
Compression mode : Lossy
Stream size : 264 MiB (6%)
Title : iTunes
Language : Russian
Service kind : Complete Main
Default : Yes
Forced : Yes
Text #1
ID : 3
Format : UTF-8
Codec ID : S_TEXT/UTF8
Codec ID/Info : UTF-8 Plain Text
Title : Forced
Language : Russian
Default : Yes
Forced : Yes
Text #2
ID : 4
Format : UTF-8
Codec ID : S_TEXT/UTF8
Codec ID/Info : UTF-8 Plain Text
Title : Full
Language : Russian
Default : No
Forced : No
Menu
00:00:00.000 : :Chapter 01
00:09:56.262 : :Chapter 02
00:21:36.295 : :Chapter 03
00:32:10.637 : :Chapter 04
00:38:33.602 : :Chapter 05
00:49:59.705 : :Chapter 06
00:55:37.167 : :Chapter 07
01:01:53.209 : :Chapter 08
01:12:04.278 : :Chapter 09
01:18:26.076 : :Chapter 10
01:26:16.796 : :Chapter 11
01:31:12.300 : :Chapter 12


Последний раз редактировалось: White Smoke (2018-12-28 14:12), всего редактировалось 1 раз
[Профиль] [ЛС]
Показать сообщения:    
Ответить на тему

Текущее время: 16-Янв 15:19

Часовой пояс: UTC + 3



Вы не можете начинать темы
Вы не можете отвечать на сообщения
Вы не можете редактировать свои сообщения
Вы не можете удалять свои сообщения
Вы не можете голосовать в опросах
Вы не можете прикреплять файлы к сообщениям
Вы не можете скачивать файлы