Animal Planet. Экспедиция Мунго / Expedition Mungo [1-6 серии из 6] (2017) HDTVRip

Ответить на тему
 
Автор Сообщение

Starik60 ®

Пол: Мужской

Стаж: 4 месяца 10 дней

Сообщений: 119

Откуда: Москва, Россия

Создавать темы 02-Янв-2019 14:15

[Цитировать]

Экспедиция Мунго / Expedition Mungo Год выпуска: 2017
Жанр: Документальный, животные, поиски, природа
Выпущено: США, Discovery Communications, LLC.
О фильме: Пол Мунгим – известный кинематографист – побывал более чем в 90 странах. Он снимал самые дикие, красивые, а зачастую и совершенно инопланетные пейзажи. Путешествуя с Беаром Гриллсом в качестве его кинооператора, он слышал множество поразительных историй о животном мире. Теперь Мунго отправляется в самые дикие уголки планеты с собственной командой, чтобы найти этим рассказам подтверждения. В Перу он разыскивает якумаму – змею длиной 45 метров, которая якобы убивает местных жителей. Неужели в тропическом лесу таится хищник опаснее анаконды? В Андах команда расследует леденящую душу легенду об укумаре, чудовище, похожем на снежного человека. Задача Мунго – встретиться с очевидцами и впервые запечатлеть на камеру легендарных существ.

Качество: HDTVRip
Видео: XviD, ~ 1540 Кбит/с, 720x400
Аудио: AC3, 2 ch, 192 Кбит/с
Продолжительность: 6 x ~ 00:44:00
Перевод: Профессиональный (одноголосый, закадровый)
Cубтитры: нет

Скриншоты



MediaInfo

General
Complete name : H:\Раздачи 3\Экспедиция Мунго HitWay\01 Экспедиция Мунго HitWay.avi
Format : AVI
Format/Info : Audio Video Interleave
File size : 548 MiB
Duration : 43 min 55 s
Overall bit rate : 1 744 kb/s
Writing application : VirtualDubMod 1.5.10.3 | www.virtualdub-fr.org || (build 2550/release)
Writing library : VirtualDubMod build 2550/release
Video
ID : 0
Format : MPEG-4 Visual
Format profile : Advanced Simple@L5
Format settings : BVOP1 / Custom Matrix
Format settings, BVOP : 1
Format settings, QPel : No
Format settings, GMC : No warppoints
Format settings, Matrix : Custom
Codec ID : XVID
Codec ID/Hint : XviD
Duration : 43 min 55 s
Bit rate : 1 542 kb/s
Width : 720 pixels
Height : 400 pixels
Display aspect ratio : 16:9
Frame rate : 25.000 FPS
Color space : YUV
Chroma subsampling : 4:2:0
Bit depth : 8 bits
Scan type : Progressive
Compression mode : Lossy
Bits/(Pixel*Frame) : 0.214
Stream size : 485 MiB (88%)
Writing library : XviD 73
Audio
ID : 1
Format : AC-3
Format/Info : Audio Coding 3
Commercial name : Dolby Digital
Codec ID : 2000
Duration : 43 min 55 s
Bit rate mode : Constant
Bit rate : 192 kb/s
Channel(s) : 2 channels
Channel layout : L R
Sampling rate : 48.0 kHz
Frame rate : 31.250 FPS (1536 SPF)
Bit depth : 16 bits
Compression mode : Lossy
Stream size : 60.3 MiB (11%)
Alignment : Split accross interleaves
Interleave, duration : 40 ms (1.00 video frame)
Interleave, preload duratio : 500 ms
Service kind : Complete Main

Название серий и содержание

01. Суперзмея из Перу.
02. Йети из Аргентины.
01. Суперзмея из Перу.
02. Йети из Аргентины.
03. Обезьяночеловек из Индии.
В 2001 году жителей Дели терроризировал получеловек-полуобезьяна. Кинематографист Мунго изучает его историю.
04. Смертоносный дракон Борнео.
По слухам, в реках Борнео обитает генали - мифический змей, который охотится на детей. Мунго намерен выяснить правду. Может быть, генали - это простой питон?
05. Живой динозавр Либерии.
Громадное крокодилоподобное существо, известное как гбахали, якобы убивает людей в Либерии. Возможно, это наиболее близкий родственник динозавров. Мунго намерен это выяснить.
06. Собакоголовый монстр Намибии.
Мунго отправляется в Намибию на поиски собакоголового кабана - таящегося в ночи монстра, который охотится на скот и детей.
Благодарю за отличный постер ValkiriaGF
Релиз от:
[Профиль] [ЛС]
Показать сообщения:    
Ответить на тему

Текущее время: 22-Мар 19:37

Часовой пояс: UTC + 3



Вы не можете начинать темы
Вы не можете отвечать на сообщения
Вы не можете редактировать свои сообщения
Вы не можете удалять свои сообщения
Вы не можете голосовать в опросах
Вы не можете прикреплять файлы к сообщениям
Вы не можете скачивать файлы