Рождество на Роза-Хутор (2019) HDTVRip от Files-x

Ответить на тему
 
Автор Сообщение

papa1951deda ®

Пол: Мужской

Стаж: 4 месяца 1 день

Сообщений: 201

Откуда: Казахстан

Создавать темы 08-Янв-2019 14:08

[Цитировать]

Рождество на Роза-Хутор Год выпуска: 2019
Жанр: Концерт
Выпущено: Россия, АО «Телекомпания НТВ»
Ведущий: Юлианна Караулова, Анатолий Цой
О фильме: О концерте: На НТВ — уникальный музыкальный фестиваль, организованный на горнолыжном курорте «Роза Хутор». Впервые фестиваль прошел в 2018 году и всего за год прочно обосновался в календаре культурных событий страны. Живой звук, оригинальная манера исполнения, молодые исполнители, которые взорвали чарты интернет-порталов, а также самые яркие представители современной музыкальной индустрии!
Качество: HDTVRip
Видео: XviD, 1990 Кбит/с, 720x400, 25 кадр/с
Аудио: AC3, 2 ch, 192 Кбит/с
Продолжительность: 01:29:50
Перевод: Не требуется
Субтитры: Нет

Скриншоты



MediaInfo

General
Complete name : D:\моё видио\Rojdestvo.Roza.Xytor.07.01.2019.HDTVRip.Files-x..avi
Format : AVI
Format/Info : Audio Video Interleave
File size : 1.38 GiB
Duration : 1h 29mn
Overall bit rate : 2 201 Kbps
Writing application : VirtualDubMod 1.5.10.3 | www.virtualdub-fr.org || (build 2550/release)
Writing library : VirtualDubMod build 2550/release
Video
ID : 0
Format : MPEG-4 Visual
Format profile : Advanced Simple@L5
Format settings, BVOP : 1
Format settings, QPel : No
Format settings, GMC : No warppoints
Format settings, Matrix : Custom
Codec ID : XVID
Codec ID/Hint : XviD
Duration : 1h 29mn
Bit rate : 1 999 Kbps
Width : 720 pixels
Height : 400 pixels
Display aspect ratio : 16:9
Frame rate : 25.000 fps
Color space : YUV
Chroma subsampling : 4:2:0
Bit depth : 8 bits
Scan type : Progressive
Compression mode : Lossy
Bits/(Pixel*Frame) : 0.278
Stream size : 1.25 GiB (91%)
Writing library : XviD 73
Audio
ID : 1
Format : AC-3
Format/Info : Audio Coding 3
Mode extension : CM (complete main)
Format settings, Endianness : Big
Codec ID : 2000
Duration : 1h 29mn
Bit rate mode : Constant
Bit rate : 192 Kbps
Channel(s) : 2 channels
Channel positions : Front: L R
Sampling rate : 48.0 KHz
Bit depth : 16 bits
Compression mode : Lossy
Stream size : 123 MiB (9%)
Alignment : Split accross interleaves
Interleave, duration : 40 ms (1.00 video frame)
Interleave, preload duration : 500 ms
Релиз от:

Релиз подготовлен R.G.Files-x

[Профиль] [ЛС]
Показать сообщения:    
Ответить на тему

Текущее время: 21-Мар 20:56

Часовой пояс: UTC + 3



Вы не можете начинать темы
Вы не можете отвечать на сообщения
Вы не можете редактировать свои сообщения
Вы не можете удалять свои сообщения
Вы не можете голосовать в опросах
Вы не можете прикреплять файлы к сообщениям
Вы не можете скачивать файлы