Трансформеры: Последний рыцарь / Transformers: The Last Knight (2017) BDRip от GeneralFilm | Лицензия

Reply to topic
 
Author Message

Monk ®

Gender: Male

Longevity: 7 months 5 days

Posts: 6966

Location: Казань

Post 10-Jan-2019 12:33

[Quote]

Трансформеры: Последний рыцарь / Transformers: The Last Knight Год выпуска: 2017
Жанр: Фантастика, боевик, триллер, приключения
Выпущено: США, Di Bonaventura Pictures, Hasbro Inc., Huahua Film & Media Culture, Ian Bryce Productions, Paramount Pictures
Режиссер: Майкл Бэй
В ролях: Марк Уолберг, Энтони Хопкинс, Джош Дюамель, Лора Хэддок, Сантьяго Кабрера, Изабела Монер, Джеррод Кармайкл, Стэнли Туччи, Лиам Гэрриган, Мартин МакКриди
О фильме: Не столь отдаленное будущее. Оптимус Прайм улетел, но обещал вернуться. Отряды специально обученных людей ловят трансформеров по всему миру и передают тех в секретные лаборатории для бесчеловечных экспериментов. Оставшиеся на свободе сгустки говорящего металла прячутся на свалках и пунктах приема вторсырья. Тем временем выясняется, что к Земле приближается полуразложившаяся планета пришельцев, Мегатрон опять живее всех живых и ищет очередное "оружие возмездия", а российский президент спрятался в подземном бункере. В этих тяжелейших условиях разношерстной команде сборщиков металлического лома, английского лорда и профессора из Оксфорда при поддержке американской военщины необходимо не только предотвратить грядущий апокалипсис, но и устроить личную жизнь.

Качество: BDRip | Blu-ray CEE 1080p
Видео: XviD, 704x368 (1.913), 23.976 fps, 1214 Kbps (0.195 bit/pixel)
Аудио: 48.0 kHz, MP3, 2/0 ch, 128 kbps
Продолжительность: 02:34:38
Перевод: Дублированный [Лицензия]
Субтитры: Русские форсированные (на надписи и прочее) вшитые

Скриншоты

MediaInfo

General
Complete name : C:\Users\Evgeny\Downloads\Transformery.2017.XviD.BDRip.Lic.GeneralFilm.avi
Format : AVI
Format/Info : Audio Video Interleave
File size : 1.46 GiB
Duration : 2 h 34 min
Overall bit rate mode : Variable
Overall bit rate : 1 354 kb/s
Writing application : VirtualDubMod 1.5.10.3 | www.virtualdub-fr.org || (build 2550/release)
Writing library : VirtualDubMod build 2550/release
Video #0
ID : 0
Format : MPEG-4 Visual
Format profile : Advanced Simple@L5
Format settings : BVOP1 / Custom Matrix
Format settings, BVOP : 1
Format settings, QPel : No
Format settings, GMC : No warppoints
Format settings, Matrix : Custom
Codec ID : XVID
Codec ID/Hint : XviD
Duration : 2 h 34 min
Bit rate : 1 214 kb/s
Width : 704 pixels
Height : 368 pixels
Display aspect ratio : 1.913
Frame rate : 23.976 (24000/1001) FPS
Color space : YUV
Chroma subsampling : 4:2:0
Bit depth : 8 bits
Scan type : Progressive
Compression mode : Lossy
Bits/(Pixel*Frame) : 0.195
Stream size : 1.31 GiB (90%)
Writing library : XviD 73
Audio #1
ID : 1
Format : MPEG Audio
Format version : Version 1
Format profile : Layer 3
Format settings : Joint stereo / MS Stereo
Codec ID : 55
Codec ID/Hint : MP3
Duration : 2 h 34 min
Bit rate mode : Variable
Bit rate : 128 kb/s
Channel(s) : 2 channels
Sampling rate : 48.0 kHz
Compression mode : Lossy
Stream size : 142 MiB (9%)
Alignment : Aligned on interleaves
Interleave, duration : 24 ms (0.58 video frame)
Interleave, preload duration : 486 ms
Релиз от:
[Profile] [PM]
Display posts:    
Reply to topic

Current time is: 20-Jun 06:06

All times are UTC + 3



You cannot post new topics in this forum
You cannot reply to topics in this forum
You cannot edit your posts in this forum
You cannot delete your posts in this forum
You cannot vote in polls in this forum
You cannot attach files in this forum
You cannot download files in this forum